Вы используете незарегистрированную версию компонента "Вкладки"!

Поиск

(Avant-Garde Jazz, Free Improvisation, Modern Creative) John Zorn, George Lewis, Bill Frisell - News For Lulu {1988} - 1988, FLAC (tracks+.cue), lossless

(Avant-Garde Jazz, Free Improvisation, Modern Creative) John Zorn, George Lewis, Bill Frisell - News For Lulu {1988} - 1988, FLAC (tracks+.cue), lossless
Треклист:
♦ John Zorn, George Lewis, Bill Frisell - News For Lulu {1988} ♦
Жанр: Avant-Garde Jazz, Free Improvisation, Modern Creative
Страна-производитель диска: Switzerland
Год издания: 1988
Издатель (лейбл): Hat Hut Records
Номер по каталогу: hat ART CD 6005
Аудиокодек: FLAC (*.flac)
Тип рипа: tracks+.cue
Битрейт аудио: lossless
Продолжительность: 01:13:46
Источник (релизер): ruskaval
Наличие сканов в содержимом раздачи: да
Треклист:
01. KD's Motion [03:35]
02. Funk in Deep Freeze [04:34]
03. Melanie [04:09]
04. Melody for C [04:29]
05. Lotus Blossom [04:11]
06. Eastern Incident [04:06]
07. Peckin' Time [03:16]
08. Blues, Blues, Blues [04:19]
09. Blue Minor I [03:46]
10. This I Dig of You [03:16]
11. Venita's Dance [03:25]
12. News for Lulu [04:10]
13. Ole [03:51]
14. Sonny's Crib [05:25]
15. Hank's Other Tune [03:56]
16. Blue Minor II [03:30]
17. Windmill [00:46]
18. News for Lulu [live] [04:21]
19. Funk in Deep Freeze [live] [03:29]
20. Windmill [live] [01:06]
 
Лог создания рипа
Exact Audio Copy V0.99 prebeta 5 from 4. May 2009
EAC extraction logfile from 2. April 2013, 22:44
John Zorn, George Lewis, Bill Frisell / News For Lulu
Used drive : TSSTcorpCD/DVDW TS-H552L Adapter: 6 ID: 3
Read mode : Secure
Utilize accurate stream : Yes
Defeat audio cache : Yes
Make use of C2 pointers : No
Read offset correction : 6
Overread into Lead-In and Lead-Out : No
Fill up missing offset samples with silence : Yes
Delete leading and trailing silent blocks : No
Null samples used in CRC calculations : Yes
Used interface : Native Win32 interface for Win NT & 2000
Gap handling : Appended to previous track
Used output format : User Defined Encoder
Selected bitrate : 1024 kBit/s
Quality : High
Add ID3 tag : No
Command line compressor : C:\Program Files (x86)\FLAC\flac.exe
Additional command line options : -8 -V -T "ARTIST=%a" -T "TITLE=%t" -T "ALBUM=%g" -T "DATE=%y" -T "TRACKNUMBER=%n" -T "GENRE=%m" -T "COMMENT=EAC FLAC -8" %s
TOC of the extracted CD
Track | Start | Length | Start sector | End sector
---------------------------------------------------------
1 | 0:00.00 | 3:35.62 | 0 | 16186
2 | 3:35.62 | 4:34.48 | 16187 | 36784
3 | 8:10.35 | 4:09.02 | 36785 | 55461
4 | 12:19.37 | 4:29.73 | 55462 | 75709
5 | 16:49.35 | 4:11.02 | 75710 | 94536
6 | 21:00.37 | 4:06.73 | 94537 | 113059
7 | 25:07.35 | 3:16.00 | 113060 | 127759
8 | 28:23.35 | 4:19.00 | 127760 | 147184
9 | 32:42.35 | 3:46.02 | 147185 | 164136
10 | 36:28.37 | 3:16.10 | 164137 | 178846
11 | 39:44.47 | 3:25.70 | 178847 | 194291
12 | 43:10.42 | 4:10.68 | 194292 | 213109
13 | 47:21.35 | 3:51.00 | 213110 | 230434
14 | 51:12.35 | 5:25.00 | 230435 | 254809
15 | 56:37.35 | 3:56.00 | 254810 | 272509
16 | 60:33.35 | 3:30.00 | 272510 | 288259
17 | 64:03.35 | 0:46.00 | 288260 | 291709
18 | 64:49.35 | 4:21.00 | 291710 | 311284
19 | 69:10.35 | 3:29.27 | 311285 | 326986
20 | 72:39.62 | 1:06.35 | 326987 | 331971
Track 1
Filename C:\John Zorn, George Lewis, Bill Frisell - News for Lulu (1988)\01 - KD's Motion.wav
Pre-gap length 0:00:02.00
Peak level 73.5 %
Track quality 99.9 %
Test CRC A8BDF86D
Copy CRC A8BDF86D
Accurately ripped (confidence 24) [B2528EAE]
Copy OK
Track 2
Filename C:\John Zorn, George Lewis, Bill Frisell - News for Lulu (1988)\02 - Funk in Deep Freeze.wav
Pre-gap length 0:00:00.55
Peak level 58.5 %
Track quality 100.0 %
Test CRC 8FF2B572
Copy CRC 8FF2B572
Accurately ripped (confidence 23) [0FA94633]
Copy OK
Track 3
Filename C:\John Zorn, George Lewis, Bill Frisell - News for Lulu (1988)\03 - Melanie.wav
Pre-gap length 0:00:00.45
Peak level 69.7 %
Track quality 99.9 %
Test CRC A4E3A5A8
Copy CRC A4E3A5A8
Accurately ripped (confidence 24) [A8C5A805]
Copy OK
Track 4
Filename C:\John Zorn, George Lewis, Bill Frisell - News for Lulu (1988)\04 - Melody for C.wav
Peak level 70.5 %
Track quality 99.9 %
Test CRC 9113AE1A
Copy CRC 9113AE1A
Accurately ripped (confidence 23) [15069995]
Copy OK
Track 5
Filename C:\John Zorn, George Lewis, Bill Frisell - News for Lulu (1988)\05 - Lotus Blossom.wav
Pre-gap length 0:00:01.13
Peak level 71.8 %
Track quality 99.9 %
Test CRC F9E0B9DD
Copy CRC F9E0B9DD
Accurately ripped (confidence 22) [E1FD2005]
Copy OK
Track 6
Filename C:\John Zorn, George Lewis, Bill Frisell - News for Lulu (1988)\06 - Eastern Incident.wav
Pre-gap length 0:00:00.27
Peak level 67.2 %
Track quality 100.0 %
Test CRC 8291E3F1
Copy CRC 8291E3F1
Accurately ripped (confidence 23) [3D72600F]
Copy OK
Track 7
Filename C:\John Zorn, George Lewis, Bill Frisell - News for Lulu (1988)\07 - Peckin' Time.wav
Pre-gap length 0:00:00.40
Peak level 73.5 %
Track quality 100.0 %
Test CRC 528FB436
Copy CRC 528FB436
Accurately ripped (confidence 23) [C4DD3842]
Copy OK
Track 8
Filename C:\John Zorn, George Lewis, Bill Frisell - News for Lulu (1988)\08 - Blues, Blues, Blues.wav
Pre-gap length 0:00:01.05
Peak level 69.1 %
Track quality 99.9 %
Test CRC 4BDFB6F5
Copy CRC 4BDFB6F5
Accurately ripped (confidence 22) [E21D4C56]
Copy OK
Track 9
Filename C:\John Zorn, George Lewis, Bill Frisell - News for Lulu (1988)\09 - Blue Minor I.wav
Pre-gap length 0:00:00.30
Peak level 68.7 %
Track quality 100.0 %
Test CRC 626CEBAF
Copy CRC 626CEBAF
Accurately ripped (confidence 23) [C4716A3C]
Copy OK
Track 10
Filename C:\John Zorn, George Lewis, Bill Frisell - News for Lulu (1988)\10 - This I Dig of You.wav
Pre-gap length 0:00:00.30
Peak level 72.9 %
Track quality 100.0 %
Test CRC 092C7398
Copy CRC 092C7398
Accurately ripped (confidence 22) [461F4A56]
Copy OK
Track 11
Filename C:\John Zorn, George Lewis, Bill Frisell - News for Lulu (1988)\11 - Venita's Dance.wav
Pre-gap length 0:00:00.52
Peak level 74.5 %
Track quality 100.0 %
Test CRC FD138A3B
Copy CRC FD138A3B
Accurately ripped (confidence 23) [BB83C93A]
Copy OK
Track 12
Filename C:\John Zorn, George Lewis, Bill Frisell - News for Lulu (1988)\12 - News for Lulu.wav
Peak level 68.1 %
Track quality 100.0 %
Test CRC 91D95139
Copy CRC 91D95139
Accurately ripped (confidence 22) [73576472]
Copy OK
Track 13
Filename C:\John Zorn, George Lewis, Bill Frisell - News for Lulu (1988)\13 - Olй.wav
Pre-gap length 0:00:00.23
Peak level 70.1 %
Track quality 100.0 %
Test CRC 27D2BC9D
Copy CRC 27D2BC9D
Accurately ripped (confidence 21) [CBCC0386]
Copy OK
Track 14
Filename C:\John Zorn, George Lewis, Bill Frisell - News for Lulu (1988)\14 - Sonny's Crib.wav
Pre-gap length 0:00:01.33
Peak level 71.9 %
Track quality 100.0 %
Test CRC B4919B51
Copy CRC B4919B51
Accurately ripped (confidence 22) [BFABD5FD]
Copy OK
Track 15
Filename C:\John Zorn, George Lewis, Bill Frisell - News for Lulu (1988)\15 - Hank's Other Tune.wav
Peak level 61.9 %
Track quality 100.0 %
Test CRC 2ADE3AA2
Copy CRC 2ADE3AA2
Accurately ripped (confidence 21) [80BB06B5]
Copy OK
Track 16
Filename C:\John Zorn, George Lewis, Bill Frisell - News for Lulu (1988)\16 - Blue Minor II.wav
Pre-gap length 0:00:00.40
Peak level 72.9 %
Track quality 100.0 %
Test CRC 601108EA
Copy CRC 601108EA
Accurately ripped (confidence 23) [366FF16A]
Copy OK
Track 17
Filename C:\John Zorn, George Lewis, Bill Frisell - News for Lulu (1988)\17 - Windmill.wav
Pre-gap length 0:00:01.30
Peak level 64.2 %
Track quality 100.0 %
Test CRC D185AE69
Copy CRC D185AE69
Accurately ripped (confidence 22) [023C8891]
Copy OK
Track 18
Filename C:\John Zorn, George Lewis, Bill Frisell - News for Lulu (1988)\18 - News for Lulu [live].wav
Pre-gap length 0:00:02.20
Peak level 84.5 %
Track quality 99.9 %
Test CRC 9896F432
Copy CRC 9896F432
Accurately ripped (confidence 23) [E1FA588A]
Copy OK
Track 19
Filename C:\John Zorn, George Lewis, Bill Frisell - News for Lulu (1988)\19 - Funk in Deep Freeze [live].wav
Peak level 90.4 %
Track quality 100.0 %
Test CRC 36FFE7EF
Copy CRC 36FFE7EF
Accurately ripped (confidence 22) [FD67D402]
Copy OK
Track 20
Filename C:\John Zorn, George Lewis, Bill Frisell - News for Lulu (1988)\20 - Windmill [live].wav
Peak level 78.8 %
Track quality 100.0 %
Test CRC F6597601
Copy CRC F6597601
Accurately ripped (confidence 23) [C420809E]
Copy OK
All tracks accurately ripped
No errors occurred
End of status report
 
Содержание индексной карты (.CUE)
REM GENRE Jazz
REM DATE 1987
REM DISCID 22114A14
REM COMMENT "ExactAudioCopy v0.99pb5"
PERFORMER "John Zorn, George Lewis, Bill Frisell"
TITLE "News For Lulu"
FILE "01 - KD's Motion.wav" WAVE
TRACK 01 AUDIO
TITLE "KD's Motion"
PERFORMER "John Zorn, George Lewis, Bill Frisell"
INDEX 01 00:00:00
TRACK 02 AUDIO
TITLE "Funk in Deep Freeze"
PERFORMER "John Zorn, George Lewis, Bill Frisell"
INDEX 00 03:35:07
FILE "02 - Funk in Deep Freeze.wav" WAVE
INDEX 01 00:00:00
TRACK 03 AUDIO
TITLE "Melanie"
PERFORMER "John Zorn, George Lewis, Bill Frisell"
INDEX 00 04:34:03
FILE "03 - Melanie.wav" WAVE
INDEX 01 00:00:00
FILE "04 - Melody for C.wav" WAVE
TRACK 04 AUDIO
TITLE "Melody for C"
PERFORMER "John Zorn, George Lewis, Bill Frisell"
INDEX 01 00:00:00
TRACK 05 AUDIO
TITLE "Lotus Blossom"
PERFORMER "John Zorn, George Lewis, Bill Frisell"
INDEX 00 04:28:60
FILE "05 - Lotus Blossom.wav" WAVE
INDEX 01 00:00:00
TRACK 06 AUDIO
TITLE "Eastern Incident"
PERFORMER "John Zorn, George Lewis, Bill Frisell"
INDEX 00 04:10:50
FILE "06 - Eastern Incident.wav" WAVE
INDEX 01 00:00:00
TRACK 07 AUDIO
TITLE "Peckin' Time"
PERFORMER "John Zorn, George Lewis, Bill Frisell"
INDEX 00 04:06:33
FILE "07 - Peckin' Time.wav" WAVE
INDEX 01 00:00:00
TRACK 08 AUDIO
TITLE "Blues, Blues, Blues"
PERFORMER "John Zorn, George Lewis, Bill Frisell"
INDEX 00 03:14:70
FILE "08 - Blues, Blues, Blues.wav" WAVE
INDEX 01 00:00:00
TRACK 09 AUDIO
TITLE "Blue Minor I"
PERFORMER "John Zorn, George Lewis, Bill Frisell"
INDEX 00 04:18:45
FILE "09 - Blue Minor I.wav" WAVE
INDEX 01 00:00:00
TRACK 10 AUDIO
TITLE "This I Dig of You"
PERFORMER "John Zorn, George Lewis, Bill Frisell"
INDEX 00 03:45:47
FILE "10 - This I Dig of You.wav" WAVE
INDEX 01 00:00:00
TRACK 11 AUDIO
TITLE "Venita's Dance"
PERFORMER "John Zorn, George Lewis, Bill Frisell"
INDEX 00 03:15:33
FILE "11 - Venita's Dance.wav" WAVE
INDEX 01 00:00:00
FILE "12 - News for Lulu.wav" WAVE
TRACK 12 AUDIO
TITLE "News for Lulu"
PERFORMER "John Zorn, George Lewis, Bill Frisell"
INDEX 01 00:00:00
TRACK 13 AUDIO
TITLE "Ole"
PERFORMER "John Zorn, George Lewis, Bill Frisell"
INDEX 00 04:10:45
FILE "13 - Ole.wav" WAVE
INDEX 01 00:00:00
TRACK 14 AUDIO
TITLE "Sonny's Crib"
PERFORMER "John Zorn, George Lewis, Bill Frisell"
INDEX 00 03:49:42
FILE "14 - Sonny's Crib.wav" WAVE
INDEX 01 00:00:00
FILE "15 - Hank's Other Tune.wav" WAVE
TRACK 15 AUDIO
TITLE "Hank's Other Tune"
PERFORMER "John Zorn, George Lewis, Bill Frisell"
INDEX 01 00:00:00
TRACK 16 AUDIO
TITLE "Blue Minor II"
PERFORMER "John Zorn, George Lewis, Bill Frisell"
INDEX 00 03:55:35
FILE "16 - Blue Minor II.wav" WAVE
INDEX 01 00:00:00
TRACK 17 AUDIO
TITLE "Windmill"
PERFORMER "John Zorn, George Lewis, Bill Frisell"
INDEX 00 03:28:45
FILE "17 - Windmill.wav" WAVE
INDEX 01 00:00:00
TRACK 18 AUDIO
TITLE "News for Lulu [live]"
PERFORMER "John Zorn, George Lewis, Bill Frisell"
INDEX 00 00:43:55
FILE "18 - News for Lulu [live].wav" WAVE
INDEX 01 00:00:00
FILE "19 - Funk in Deep Freeze [live].wav" WAVE
TRACK 19 AUDIO
TITLE "Funk in Deep Freeze [live]"
PERFORMER "John Zorn, George Lewis, Bill Frisell"
INDEX 01 00:00:00
FILE "20 - Windmill [live].wav" WAVE
TRACK 20 AUDIO
TITLE "Windmill [live]"
PERFORMER "John Zorn, George Lewis, Bill Frisell"
INDEX 01 00:00:00
 
Состав
Personnel: John Zorn - alto sax, George Lewis - trombone, Bill Frisell - guitar.
Any questions -> support@pro-jazz.com. По всем вопросам пишите -> support@pro-jazz.com
12:56
232
Нет комментариев. Ваш будет первым!