Вы используете незарегистрированную версию компонента "Вкладки"!

Поиск

(Avant-Garde Jazz, Free Improvisation) Michael Attias & Sean Conly - Think Shadow - 2012, FLAC (tracks+.cue), lossless

(Avant-Garde Jazz, Free Improvisation) Michael Attias & Sean Conly - Think Shadow - 2012, FLAC (tracks+.cue), lossless
Треклист:
Michaël Attias & Sean Conly / Think Shadow
Жанр: Avant-Garde Jazz, Free Improvisation
Страна-производитель диска: US
Год издания: 2012
Издатель (лейбл): OutNow Recordings
Номер по каталогу: 009
Аудиокодек: FLAC (*.flac)
Тип рипа: tracks+.cue
Битрейт аудио: lossless
Продолжительность: 54:23
Источник (релизер): whatcd (6060842)
Наличие сканов в содержимом раздачи: нет
Треклист:
1 Timeslip 2:53
2 Scylla and Charybdis 3:44
3 Baghdad Bargain 1:36
4 Rabid In the Boneyard Blue 3:01
5 Think Shadow 3:32
6 Midnight In the Desert Nothing But Camel Rhythms To Keep Me Awake 4:33
7 Tumble 6:01
8 Swarm 4:55
9 Gary 2:37
10 Sloe Mink 4:07
11 Even Owls Dream 2:52
12 Poe's Pendulum 2:20
13 Shaftway 4:23
14 Sargasso 4:19
15 Respectable Tawdry 3:25
 
Лог создания рипа
X Lossless Decoder version 20130602 (143.2)
XLD extraction logfile from 2013-06-12 11:59:44 +0400
Sean Conly, Michaël Attias / Think Shadow
Used drive : HL-DT-ST DVDRW GX30N (revision RP09)
Media type : Pressed CD
Ripper mode : XLD Secure Ripper
Disable audio cache : OK for the drive with a cache less than 1375KiB
Make use of C2 pointers : NO
Read offset correction : 6
Max retry count : 100
Gap status : Analyzed, Appended (except HTOA)
TOC of the extracted CD
Track | Start | Length | Start sector | End sector
---------------------------------------------------------
1 | 00:00:00 | 02:53:21 | 0 | 12995
2 | 02:53:21 | 03:44:74 | 12996 | 29869
3 | 06:38:20 | 01:36:07 | 29870 | 37076
4 | 08:14:27 | 03:01:73 | 37077 | 50724
5 | 11:16:25 | 03:32:01 | 50725 | 66625
6 | 14:48:26 | 04:33:13 | 66626 | 87113
7 | 19:21:39 | 06:01:25 | 87114 | 114213
8 | 25:22:64 | 04:55:04 | 114214 | 136342
9 | 30:17:68 | 02:37:40 | 136343 | 148157
10 | 32:55:33 | 04:07:25 | 148158 | 166707
11 | 37:02:58 | 02:52:44 | 166708 | 179651
12 | 39:55:27 | 02:20:02 | 179652 | 190153
13 | 42:15:29 | 04:23:34 | 190154 | 209912
14 | 46:38:63 | 04:19:21 | 209913 | 229358
15 | 50:58:09 | 03:25:17 | 229359 | 244750
AccurateRip Summary
Disc not found in AccurateRip DB.
All Tracks
Album gain : -5.04 dB
Peak : 0.963287
Statistics
Read error : 0
Jitter error (maybe fixed) : 0
Retry sector count : 0
Damaged sector count : 0
Track 01
Filename : /Users/anch/Music/FLAC/Sean Conly, Michael Attias - 2012 - Think Shadow [MP3 320]/01 - Timeslip.mp3
/Users/anch/Music/FLAC/Sean Conly, Michael Attias - 2012 - Think Shadow [MP3 V0]/01 - Timeslip.mp3
/Users/anch/Music/FLAC/Sean Conly, Michael Attias - 2012 - Think Shadow [FLAC]/01 - Timeslip.flac
Pre-gap length : 00:02:00
Track gain : -6.61 dB
Peak : 0.963196
CRC32 hash (test run) : 28A24281
CRC32 hash : 28A24281
CRC32 hash (skip zero) : 433DF538
AccurateRip v1 signature : 368A99DA
AccurateRip v2 signature : 6E71EE89
->Track not present in AccurateRip database.
Statistics
Read error : 0
Jitter error (maybe fixed) : 0
Retry sector count : 0
Damaged sector count : 0
Track 02
Filename : /Users/anch/Music/FLAC/Sean Conly, Michael Attias - 2012 - Think Shadow [MP3 320]/02 - Scylla And Charybdis.mp3
/Users/anch/Music/FLAC/Sean Conly, Michael Attias - 2012 - Think Shadow [MP3 V0]/02 - Scylla And Charybdis.mp3
/Users/anch/Music/FLAC/Sean Conly, Michael Attias - 2012 - Think Shadow [FLAC]/02 - Scylla And Charybdis.flac
Pre-gap length : 00:02:00
Track gain : -5.38 dB
Peak : 0.963226
CRC32 hash (test run) : F72D9A1D
CRC32 hash : F72D9A1D
CRC32 hash (skip zero) : A068476D
AccurateRip v1 signature : AC7A7D98
AccurateRip v2 signature : 0DB14776
->Track not present in AccurateRip database.
Statistics
Read error : 0
Jitter error (maybe fixed) : 0
Retry sector count : 0
Damaged sector count : 0
Track 03
Filename : /Users/anch/Music/FLAC/Sean Conly, Michael Attias - 2012 - Think Shadow [MP3 320]/03 - Bagdhdad Bargain.mp3
/Users/anch/Music/FLAC/Sean Conly, Michael Attias - 2012 - Think Shadow [MP3 V0]/03 - Bagdhdad Bargain.mp3
/Users/anch/Music/FLAC/Sean Conly, Michael Attias - 2012 - Think Shadow [FLAC]/03 - Bagdhdad Bargain.flac
Pre-gap length : 00:02:00
Track gain : -2.64 dB
Peak : 0.963196
CRC32 hash (test run) : 985E6F55
CRC32 hash : 985E6F55
CRC32 hash (skip zero) : 841BE2F0
AccurateRip v1 signature : 56AA1066
AccurateRip v2 signature : B61A7F25
->Track not present in AccurateRip database.
Statistics
Read error : 0
Jitter error (maybe fixed) : 0
Retry sector count : 0
Damaged sector count : 0
Track 04
Filename : /Users/anch/Music/FLAC/Sean Conly, Michael Attias - 2012 - Think Shadow [MP3 320]/04 - Rabid In The Boneyard Blue.mp3
/Users/anch/Music/FLAC/Sean Conly, Michael Attias - 2012 - Think Shadow [MP3 V0]/04 - Rabid In The Boneyard Blue.mp3
/Users/anch/Music/FLAC/Sean Conly, Michael Attias - 2012 - Think Shadow [FLAC]/04 - Rabid In The Boneyard Blue.flac
Pre-gap length : 00:02:00
Track gain : -4.09 dB
Peak : 0.963226
CRC32 hash (test run) : 78491261
CRC32 hash : 78491261
CRC32 hash (skip zero) : C251E62A
AccurateRip v1 signature : DF67EFC2
AccurateRip v2 signature : BCA8B23D
->Track not present in AccurateRip database.
Statistics
Read error : 0
Jitter error (maybe fixed) : 0
Retry sector count : 0
Damaged sector count : 0
Track 05
Filename : /Users/anch/Music/FLAC/Sean Conly, Michael Attias - 2012 - Think Shadow [MP3 320]/05 - Think Shadow.mp3
/Users/anch/Music/FLAC/Sean Conly, Michael Attias - 2012 - Think Shadow [MP3 V0]/05 - Think Shadow.mp3
/Users/anch/Music/FLAC/Sean Conly, Michael Attias - 2012 - Think Shadow [FLAC]/05 - Think Shadow.flac
Pre-gap length : 00:02:00
Track gain : -7.11 dB
Peak : 0.963257
CRC32 hash (test run) : 40578E55
CRC32 hash : 40578E55
CRC32 hash (skip zero) : E2F658A2
AccurateRip v1 signature : F7E9B4FF
AccurateRip v2 signature : 45B3C2DD
->Track not present in AccurateRip database.
Statistics
Read error : 0
Jitter error (maybe fixed) : 0
Retry sector count : 0
Damaged sector count : 0
Track 06
Filename : /Users/anch/Music/FLAC/Sean Conly, Michael Attias - 2012 - Think Shadow [MP3 320]/06 - Midnight In The Desert Nothing But Camel Rhythms To Keep Me Awake.mp3
/Users/anch/Music/FLAC/Sean Conly, Michael Attias - 2012 - Think Shadow [MP3 V0]/06 - Midnight In The Desert Nothing But Camel Rhythms To Keep Me Awake.mp3
/Users/anch/Music/FLAC/Sean Conly, Michael Attias - 2012 - Think Shadow [FLAC]/06 - Midnight In The Desert Nothing But Camel Rhythms To Keep Me Awake.flac
Pre-gap length : 00:02:00
Track gain : -3.66 dB
Peak : 0.963226
CRC32 hash (test run) : 89407270
CRC32 hash : 89407270
CRC32 hash (skip zero) : 2D7603EB
AccurateRip v1 signature : 30948C31
AccurateRip v2 signature : CCE872F2
->Track not present in AccurateRip database.
Statistics
Read error : 0
Jitter error (maybe fixed) : 0
Retry sector count : 0
Damaged sector count : 0
Track 07
Filename : /Users/anch/Music/FLAC/Sean Conly, Michael Attias - 2012 - Think Shadow [MP3 320]/07 - Tumble.mp3
/Users/anch/Music/FLAC/Sean Conly, Michael Attias - 2012 - Think Shadow [MP3 V0]/07 - Tumble.mp3
/Users/anch/Music/FLAC/Sean Conly, Michael Attias - 2012 - Think Shadow [FLAC]/07 - Tumble.flac
Pre-gap length : 00:02:00
Track gain : -4.42 dB
Peak : 0.963287
CRC32 hash (test run) : BF0B8AA9
CRC32 hash : BF0B8AA9
CRC32 hash (skip zero) : 88BB1E75
AccurateRip v1 signature : F649B8E3
AccurateRip v2 signature : C1C9AEBF
->Track not present in AccurateRip database.
Statistics
Read error : 0
Jitter error (maybe fixed) : 0
Retry sector count : 0
Damaged sector count : 0
Track 08
Filename : /Users/anch/Music/FLAC/Sean Conly, Michael Attias - 2012 - Think Shadow [MP3 320]/08 - Swarm.mp3
/Users/anch/Music/FLAC/Sean Conly, Michael Attias - 2012 - Think Shadow [MP3 V0]/08 - Swarm.mp3
/Users/anch/Music/FLAC/Sean Conly, Michael Attias - 2012 - Think Shadow [FLAC]/08 - Swarm.flac
Pre-gap length : 00:02:00
Track gain : -5.02 dB
Peak : 0.963226
CRC32 hash (test run) : AA636E7E
CRC32 hash : AA636E7E
CRC32 hash (skip zero) : 00292C55
AccurateRip v1 signature : 49EA8AFD
AccurateRip v2 signature : 2339B2BA
->Track not present in AccurateRip database.
Statistics
Read error : 0
Jitter error (maybe fixed) : 0
Retry sector count : 0
Damaged sector count : 0
Track 09
Filename : /Users/anch/Music/FLAC/Sean Conly, Michael Attias - 2012 - Think Shadow [MP3 320]/09 - Gary.mp3
/Users/anch/Music/FLAC/Sean Conly, Michael Attias - 2012 - Think Shadow [MP3 V0]/09 - Gary.mp3
/Users/anch/Music/FLAC/Sean Conly, Michael Attias - 2012 - Think Shadow [FLAC]/09 - Gary.flac
Pre-gap length : 00:02:00
Track gain : -7.67 dB
Peak : 0.963226
CRC32 hash (test run) : FC9402EF
CRC32 hash : FC9402EF
CRC32 hash (skip zero) : 1C97E6A7
AccurateRip v1 signature : 552C2BC1
AccurateRip v2 signature : 272E0B32
->Track not present in AccurateRip database.
Statistics
Read error : 0
Jitter error (maybe fixed) : 0
Retry sector count : 0
Damaged sector count : 0
Track 10
Filename : /Users/anch/Music/FLAC/Sean Conly, Michael Attias - 2012 - Think Shadow [MP3 320]/10 - Sloe Mink.mp3
/Users/anch/Music/FLAC/Sean Conly, Michael Attias - 2012 - Think Shadow [MP3 V0]/10 - Sloe Mink.mp3
/Users/anch/Music/FLAC/Sean Conly, Michael Attias - 2012 - Think Shadow [FLAC]/10 - Sloe Mink.flac
Pre-gap length : 00:02:00
Track gain : 1.19 dB
Peak : 0.963135
CRC32 hash (test run) : E8387D87
CRC32 hash : E8387D87
CRC32 hash (skip zero) : 74B56E70
AccurateRip v1 signature : D3E2BE85
AccurateRip v2 signature : 61E66995
->Track not present in AccurateRip database.
Statistics
Read error : 0
Jitter error (maybe fixed) : 0
Retry sector count : 0
Damaged sector count : 0
Track 11
Filename : /Users/anch/Music/FLAC/Sean Conly, Michael Attias - 2012 - Think Shadow [MP3 320]/11 - Even Owls Dream.mp3
/Users/anch/Music/FLAC/Sean Conly, Michael Attias - 2012 - Think Shadow [MP3 V0]/11 - Even Owls Dream.mp3
/Users/anch/Music/FLAC/Sean Conly, Michael Attias - 2012 - Think Shadow [FLAC]/11 - Even Owls Dream.flac
Pre-gap length : 00:02:00
Track gain : -3.72 dB
Peak : 0.963226
CRC32 hash (test run) : C66A6315
CRC32 hash : C66A6315
CRC32 hash (skip zero) : E82C53F6
AccurateRip v1 signature : 40ADC169
AccurateRip v2 signature : 683CF2B5
->Track not present in AccurateRip database.
Statistics
Read error : 0
Jitter error (maybe fixed) : 0
Retry sector count : 0
Damaged sector count : 0
Track 12
Filename : /Users/anch/Music/FLAC/Sean Conly, Michael Attias - 2012 - Think Shadow [MP3 320]/12 - Poe's Pendulum.mp3
/Users/anch/Music/FLAC/Sean Conly, Michael Attias - 2012 - Think Shadow [MP3 V0]/12 - Poe's Pendulum.mp3
/Users/anch/Music/FLAC/Sean Conly, Michael Attias - 2012 - Think Shadow [FLAC]/12 - Poe's Pendulum.flac
Pre-gap length : 00:02:00
Track gain : -4.74 dB
Peak : 0.963226
CRC32 hash (test run) : F18CB53E
CRC32 hash : F18CB53E
CRC32 hash (skip zero) : 746E1F1D
AccurateRip v1 signature : D7E1571A
AccurateRip v2 signature : 025AB88B
->Track not present in AccurateRip database.
Statistics
Read error : 0
Jitter error (maybe fixed) : 0
Retry sector count : 0
Damaged sector count : 0
Track 13
Filename : /Users/anch/Music/FLAC/Sean Conly, Michael Attias - 2012 - Think Shadow [MP3 320]/13 - Shaftway.mp3
/Users/anch/Music/FLAC/Sean Conly, Michael Attias - 2012 - Think Shadow [MP3 V0]/13 - Shaftway.mp3
/Users/anch/Music/FLAC/Sean Conly, Michael Attias - 2012 - Think Shadow [FLAC]/13 - Shaftway.flac
Pre-gap length : 00:02:00
Track gain : -4.09 dB
Peak : 0.963226
CRC32 hash (test run) : 79441D71
CRC32 hash : 79441D71
CRC32 hash (skip zero) : DE28B845
AccurateRip v1 signature : 06B2607C
AccurateRip v2 signature : 1DEA8669
->Track not present in AccurateRip database.
Statistics
Read error : 0
Jitter error (maybe fixed) : 0
Retry sector count : 0
Damaged sector count : 0
Track 14
Filename : /Users/anch/Music/FLAC/Sean Conly, Michael Attias - 2012 - Think Shadow [MP3 320]/14 - Sargasso.mp3
/Users/anch/Music/FLAC/Sean Conly, Michael Attias - 2012 - Think Shadow [MP3 V0]/14 - Sargasso.mp3
/Users/anch/Music/FLAC/Sean Conly, Michael Attias - 2012 - Think Shadow [FLAC]/14 - Sargasso.flac
Pre-gap length : 00:02:00
Track gain : -4.20 dB
Peak : 0.963196
CRC32 hash (test run) : C50257E8
CRC32 hash : C50257E8
CRC32 hash (skip zero) : AD2ED746
AccurateRip v1 signature : 77324E80
AccurateRip v2 signature : 7147515E
->Track not present in AccurateRip database.
Statistics
Read error : 0
Jitter error (maybe fixed) : 0
Retry sector count : 0
Damaged sector count : 0
Track 15
Filename : /Users/anch/Music/FLAC/Sean Conly, Michael Attias - 2012 - Think Shadow [MP3 320]/15 - Respectable Tawdry.mp3
/Users/anch/Music/FLAC/Sean Conly, Michael Attias - 2012 - Think Shadow [MP3 V0]/15 - Respectable Tawdry.mp3
/Users/anch/Music/FLAC/Sean Conly, Michael Attias - 2012 - Think Shadow [FLAC]/15 - Respectable Tawdry.flac
Pre-gap length : 00:02:00
Track gain : -6.24 dB
Peak : 0.963226
CRC32 hash (test run) : 652C15CA
CRC32 hash : 652C15CA
CRC32 hash (skip zero) : FCD8229D
AccurateRip v1 signature : E835AD01
AccurateRip v2 signature : AF667858
->Track not present in AccurateRip database.
Statistics
Read error : 0
Jitter error (maybe fixed) : 0
Retry sector count : 0
Damaged sector count : 0
No errors occurred
End of status report
 
Содержание индексной карты (.CUE)
TITLE "Think Shadow"
PERFORMER "Sean Conly, MichaГ«l Attias"
REM GENRE "Free Jazz"
REM DATE "2012"
REM DISCNUMBER 1
REM TOTALDISCS 1
REM DISCID D10CBF0F
REM REPLAYGAIN_ALBUM_GAIN -5.04 dB
REM REPLAYGAIN_ALBUM_PEAK 0.963287
FILE "01 - Timeslip.flac" WAVE
TRACK 01 AUDIO
TITLE "Timeslip"
PERFORMER "Sean Conly, MichaГ«l Attias"
REM REPLAYGAIN_TRACK_GAIN -6.61 dB
REM REPLAYGAIN_TRACK_PEAK 0.963196
INDEX 01 00:00:00
TRACK 02 AUDIO
TITLE "Scylla And Charybdis"
PERFORMER "Sean Conly, MichaГ«l Attias"
REM REPLAYGAIN_TRACK_GAIN -5.38 dB
REM REPLAYGAIN_TRACK_PEAK 0.963226
INDEX 00 02:51:21
FILE "02 - Scylla And Charybdis.flac" WAVE
INDEX 01 00:00:00
TRACK 03 AUDIO
TITLE "Bagdhdad Bargain"
PERFORMER "Sean Conly, MichaГ«l Attias"
REM REPLAYGAIN_TRACK_GAIN -2.64 dB
REM REPLAYGAIN_TRACK_PEAK 0.963196
INDEX 00 03:42:74
FILE "03 - Bagdhdad Bargain.flac" WAVE
INDEX 01 00:00:00
TRACK 04 AUDIO
TITLE "Rabid In The Boneyard Blue"
PERFORMER "Sean Conly, MichaГ«l Attias"
REM REPLAYGAIN_TRACK_GAIN -4.09 dB
REM REPLAYGAIN_TRACK_PEAK 0.963226
INDEX 00 01:34:07
FILE "04 - Rabid In The Boneyard Blue.flac" WAVE
INDEX 01 00:00:00
TRACK 05 AUDIO
TITLE "Think Shadow"
PERFORMER "Sean Conly, MichaГ«l Attias"
REM REPLAYGAIN_TRACK_GAIN -7.11 dB
REM REPLAYGAIN_TRACK_PEAK 0.963257
INDEX 00 02:59:73
FILE "05 - Think Shadow.flac" WAVE
INDEX 01 00:00:00
TRACK 06 AUDIO
TITLE "Midnight In The Desert Nothing But Camel Rhythms To Keep Me Awake"
PERFORMER "Sean Conly, MichaГ«l Attias"
REM REPLAYGAIN_TRACK_GAIN -3.66 dB
REM REPLAYGAIN_TRACK_PEAK 0.963226
INDEX 00 03:30:01
FILE "06 - Midnight In The Desert Nothing But Camel Rhythms To Keep Me Awake.flac" WAVE
INDEX 01 00:00:00
TRACK 07 AUDIO
TITLE "Tumble"
PERFORMER "Sean Conly, MichaГ«l Attias"
REM REPLAYGAIN_TRACK_GAIN -4.42 dB
REM REPLAYGAIN_TRACK_PEAK 0.963287
INDEX 00 04:31:13
FILE "07 - Tumble.flac" WAVE
INDEX 01 00:00:00
TRACK 08 AUDIO
TITLE "Swarm"
PERFORMER "Sean Conly, MichaГ«l Attias"
REM REPLAYGAIN_TRACK_GAIN -5.02 dB
REM REPLAYGAIN_TRACK_PEAK 0.963226
INDEX 00 05:59:25
FILE "08 - Swarm.flac" WAVE
INDEX 01 00:00:00
TRACK 09 AUDIO
TITLE "Gary"
PERFORMER "Sean Conly, MichaГ«l Attias"
REM REPLAYGAIN_TRACK_GAIN -7.67 dB
REM REPLAYGAIN_TRACK_PEAK 0.963226
INDEX 00 04:53:04
FILE "09 - Gary.flac" WAVE
INDEX 01 00:00:00
TRACK 10 AUDIO
TITLE "Sloe Mink"
PERFORMER "Sean Conly, MichaГ«l Attias"
REM REPLAYGAIN_TRACK_GAIN 1.19 dB
REM REPLAYGAIN_TRACK_PEAK 0.963135
INDEX 00 02:35:40
FILE "10 - Sloe Mink.flac" WAVE
INDEX 01 00:00:00
TRACK 11 AUDIO
TITLE "Even Owls Dream"
PERFORMER "Sean Conly, MichaГ«l Attias"
REM REPLAYGAIN_TRACK_GAIN -3.72 dB
REM REPLAYGAIN_TRACK_PEAK 0.963226
INDEX 00 04:05:25
FILE "11 - Even Owls Dream.flac" WAVE
INDEX 01 00:00:00
TRACK 12 AUDIO
TITLE "Poe's Pendulum"
PERFORMER "Sean Conly, MichaГ«l Attias"
REM REPLAYGAIN_TRACK_GAIN -4.74 dB
REM REPLAYGAIN_TRACK_PEAK 0.963226
INDEX 00 02:50:44
FILE "12 - Poe's Pendulum.flac" WAVE
INDEX 01 00:00:00
TRACK 13 AUDIO
TITLE "Shaftway"
PERFORMER "Sean Conly, MichaГ«l Attias"
REM REPLAYGAIN_TRACK_GAIN -4.09 dB
REM REPLAYGAIN_TRACK_PEAK 0.963226
INDEX 00 02:18:02
FILE "13 - Shaftway.flac" WAVE
INDEX 01 00:00:00
TRACK 14 AUDIO
TITLE "Sargasso"
PERFORMER "Sean Conly, MichaГ«l Attias"
REM REPLAYGAIN_TRACK_GAIN -4.20 dB
REM REPLAYGAIN_TRACK_PEAK 0.963196
INDEX 00 04:21:34
FILE "14 - Sargasso.flac" WAVE
INDEX 01 00:00:00
TRACK 15 AUDIO
TITLE "Respectable Tawdry"
PERFORMER "Sean Conly, MichaГ«l Attias"
REM REPLAYGAIN_TRACK_GAIN -6.24 dB
REM REPLAYGAIN_TRACK_PEAK 0.963226
INDEX 00 04:17:21
FILE "15 - Respectable Tawdry.flac" WAVE
INDEX 01 00:00:00
 
Состав
Sean Conly – Double Bass,
Michael Attias – Alto & Baritone Saxophones
Any questions -> support@pro-jazz.com. По всем вопросам пишите -> support@pro-jazz.com
15:26
143
Нет комментариев. Ваш будет первым!