Вы используете незарегистрированную версию компонента "Вкладки"!

Поиск

(Avant-Garde Jazz, Free Improvisation) Mark O'Leary, Eyvind Kang, Dylan Van Der Schyff - Zemlya - 2008, FLAC (tracks+.cue), lossless

(Avant-Garde Jazz, Free Improvisation) Mark O'Leary, Eyvind Kang, Dylan Van Der Schyff - Zemlya - 2008, FLAC (tracks+.cue), lossless
Треклист:
Mark O'Leary, Eyvind Kang, Dylan Van Der Schyff / Zemlya
Жанр: Avant-Garde Jazz, Free Improvisation
Страна-производитель диска: UK
Год издания: 2008
Издатель (лейбл): Leo Records
Номер по каталогу: CD LR 507
Страна: Ireland
Аудиокодек: FLAC (*.flac)
Тип рипа: tracks+.cue
Битрейт аудио: lossless
Продолжительность: 70:15
Источник (релизер): свой фирменный диск
Наличие сканов в содержимом раздачи: нет
Треклист:
1 Zemlya 1:31
2 Vashon 17:50
3 Impish 2:03
4 Story Of Iceland, Part 2 12:38
5 Karyobia 2:25
6 Sorcery 18:40
7 Kith And Kin 6:43
8 Meekong Delta Blues 6:21
9 Anorak 1:59
 
Лог создания рипа
Exact Audio Copy V1.0 beta 3 from 29. August 2011
EAC extraction logfile from 28. January 2013, 23:13
Mark O'Leary, Eyvind Kang, Dylan Van Der Schyff / Zemlya
Used drive : PIONEER DVD-RW DVR-115D Adapter: 0 ID: 0
Read mode : Secure
Utilize accurate stream : Yes
Defeat audio cache : Yes
Make use of C2 pointers : No
Read offset correction : 48
Overread into Lead-In and Lead-Out : No
Fill up missing offset samples with silence : Yes
Delete leading and trailing silent blocks : No
Null samples used in CRC calculations : Yes
Used interface : Installed external ASPI interface
Gap handling : Appended to previous track
Used output format : User Defined Encoder
Selected bitrate : 896 kBit/s
Quality : High
Add ID3 tag : No
Command line compressor : C:\Program Files\Exact Audio Copy\FLAC\FLAC.EXE
Additional command line options : -6 -V -T "ARTIST=%artist%" -T "TITLE=%title%" -T "ALBUM=%albumtitle%" -T "DATE=%year%" -T "TRACKNUMBER=%tracknr%" -T "GENRE=%genre%" -T "COMMENT=%comment%" -T "BAND=%albuminterpret%" -T "COMPOSER=%composer%" %haslyrics%--tag-from-file=LYRICS="%lyricsfile%"%haslyrics% -T "DISCNUMBER=%cdnumber%" -T "TOTALDISCS=%totalcds%" -T "TOTALTRACKS=%numtracks%" %hascover%--picture="%coverfile%"%hascover% %source% -o %dest%
TOC of the extracted CD
Track | Start | Length | Start sector | End sector
---------------------------------------------------------
1 | 0:00.00 | 1:31.03 | 0 | 6827
2 | 1:31.03 | 17:50.50 | 6828 | 87127
3 | 19:21.53 | 2:03.04 | 87128 | 96356
4 | 21:24.57 | 12:38.42 | 96357 | 153248
5 | 34:03.24 | 2:25.40 | 153249 | 164163
6 | 36:28.64 | 18:40.66 | 164164 | 248229
7 | 55:09.55 | 6:43.37 | 248230 | 278491
8 | 61:53.17 | 6:21.68 | 278492 | 307134
9 | 68:15.10 | 1:59.65 | 307135 | 316124
Track 1
Filename D:\zzz\01 - Zemlya.wav
Pre-gap length 0:00:02.00
Peak level 96.6 %
Extraction speed 3.5 X
Track quality 100.0 %
Test CRC CA35825A
Copy CRC CA35825A
Accurately ripped (confidence 1) [F09555AF] (AR v1)
Copy OK
Track 2
Filename D:\zzz\02 - Vashon.wav
Peak level 52.5 %
Extraction speed 5.6 X
Track quality 99.9 %
Test CRC 4D7740BF
Copy CRC 4D7740BF
Accurately ripped (confidence 1) [701FE1A9] (AR v1)
Copy OK
Track 3
Filename D:\zzz\03 - Impish.wav
Peak level 96.6 %
Extraction speed 5.3 X
Track quality 100.0 %
Test CRC 8B0A925F
Copy CRC 8B0A925F
Accurately ripped (confidence 1) [31FBF760] (AR v1)
Copy OK
Track 4
Filename D:\zzz\04 - Story Of Iceland, Part II.wav
Peak level 55.2 %
Extraction speed 7.2 X
Track quality 100.0 %
Test CRC 09839A65
Copy CRC 09839A65
Accurately ripped (confidence 1) [54532E53] (AR v1)
Copy OK
Track 5
Filename D:\zzz\05 - Karyobia.wav
Peak level 96.5 %
Extraction speed 6.5 X
Track quality 100.0 %
Test CRC BC0C2464
Copy CRC BC0C2464
Accurately ripped (confidence 1) [EE3F36F7] (AR v1)
Copy OK
Track 6
Filename D:\zzz\06 - Sorcery.wav
Peak level 48.4 %
Extraction speed 8.4 X
Track quality 100.0 %
Test CRC BA8859D2
Copy CRC BA8859D2
Accurately ripped (confidence 1) [944864CE] (AR v1)
Copy OK
Track 7
Filename D:\zzz\07 - Kith And Kin.wav
Peak level 65.1 %
Extraction speed 8.7 X
Track quality 100.0 %
Test CRC CB1AD64D
Copy CRC CB1AD64D
Accurately ripped (confidence 1) [45233066] (AR v1)
Copy OK
Track 8
Filename D:\zzz\08 - Meekong Delta Blues.wav
Peak level 96.6 %
Extraction speed 8.9 X
Track quality 100.0 %
Test CRC F36DDB4D
Copy CRC F36DDB4D
Accurately ripped (confidence 1) [48D71082] (AR v1)
Copy OK
Track 9
Filename D:\zzz\09 - Anorak.wav
Peak level 96.6 %
Extraction speed 6.3 X
Track quality 99.9 %
Test CRC E8E08A6F
Copy CRC E8E08A6F
Accurately ripped (confidence 1) [AC384077] (AR v1)
Copy OK
All tracks accurately ripped
No errors occurred
End of status report
==== Log checksum AAE2AE9DF1D388FB3A422674A29946DA2B9FBFC0EC93609CE08743BB08CEE767 ====
 
Содержание индексной карты (.CUE)
REM GENRE Avantgarde
REM DATE 2008
REM DISCID 6D107709
REM COMMENT "ExactAudioCopy v1.0b3"
PERFORMER "Mark O'Leary, Eyvind Kang, Dylan Van Der Schyff"
TITLE "Zemlya"
FILE "01 - Zemlya.wav" WAVE
TRACK 01 AUDIO
TITLE "Zemlya"
PERFORMER "Mark O'Leary, Eyvind Kang, Dylan Van Der Schyff"
INDEX 01 00:00:00
FILE "02 - Vashon.wav" WAVE
TRACK 02 AUDIO
TITLE "Vashon"
PERFORMER "Mark O'Leary, Eyvind Kang, Dylan Van Der Schyff"
INDEX 01 00:00:00
FILE "03 - Impish.wav" WAVE
TRACK 03 AUDIO
TITLE "Impish"
PERFORMER "Mark O'Leary, Eyvind Kang, Dylan Van Der Schyff"
INDEX 01 00:00:00
FILE "04 - Story Of Iceland, Part II.wav" WAVE
TRACK 04 AUDIO
TITLE "Story Of Iceland, Part II"
PERFORMER "Mark O'Leary, Eyvind Kang, Dylan Van Der Schyff"
INDEX 01 00:00:00
FILE "05 - Karyobia.wav" WAVE
TRACK 05 AUDIO
TITLE "Karyobia"
PERFORMER "Mark O'Leary, Eyvind Kang, Dylan Van Der Schyff"
INDEX 01 00:00:00
FILE "06 - Sorcery.wav" WAVE
TRACK 06 AUDIO
TITLE "Sorcery"
PERFORMER "Mark O'Leary, Eyvind Kang, Dylan Van Der Schyff"
INDEX 01 00:00:00
FILE "07 - Kith And Kin.wav" WAVE
TRACK 07 AUDIO
TITLE "Kith And Kin"
PERFORMER "Mark O'Leary, Eyvind Kang, Dylan Van Der Schyff"
INDEX 01 00:00:00
FILE "08 - Meekong Delta Blues.wav" WAVE
TRACK 08 AUDIO
TITLE "Meekong Delta Blues"
PERFORMER "Mark O'Leary, Eyvind Kang, Dylan Van Der Schyff"
INDEX 01 00:00:00
FILE "09 - Anorak.wav" WAVE
TRACK 09 AUDIO
TITLE "Anorak"
PERFORMER "Mark O'Leary, Eyvind Kang, Dylan Van Der Schyff"
INDEX 01 00:00:00
 
Лог проверки качества
d:\>d:\aucdtect -d/-m0 d:\zzz\*.wav
auCDtect: CD records authenticity detector, version 0.8.2
Copyright (c) 2004 Oleg Berngardt. All rights reserved.
Copyright (c) 2004 Alexander Djourik. All rights reserved.
------------------------------------------------------------
Processing file: [01. Zemlya.wav]
------------------------------------------------------------
This track looks like MPEG with probability 90%
------------------------------------------------------------
Processing file: [02. Vashon.wav]
------------------------------------------------------------
This track looks like MPEG with probability 95%
------------------------------------------------------------
Processing file: [03. Impish.wav]
------------------------------------------------------------
This track looks like MPEG with probability 100%
------------------------------------------------------------
Processing file: [04. Story Of Iceland, Part II.wav]
------------------------------------------------------------
This track looks like MPEG with probability 100%
------------------------------------------------------------
Processing file: [05. Karyobia.wav]
------------------------------------------------------------
This track looks like MPEG with probability 79%
------------------------------------------------------------
Processing file: [06. Sorcery.wav]
------------------------------------------------------------
This track looks like MPEG with probability 95%
------------------------------------------------------------
Processing file: [07. Kith And Kin.wav]
------------------------------------------------------------
This track looks like MPEG with probability 100%
------------------------------------------------------------
Processing file: [08. Meekong Delta Blues.wav]
------------------------------------------------------------
This track looks like MPEG with probability 100%
------------------------------------------------------------
Processing file: [09. Anorak.wav]
------------------------------------------------------------
This track looks like MPEG with probability 100%
------------------------------------------------------------
Final Conclusion:
------------------------------------------------------------
These tracks looks like MPEGs with probability 100%
 
Скриншот спектра частот
 
Состав
Drums, Percussion, Computer [Laptop] – Dylan van der Schyff
Guitar, Electronics – Mark O'Leary
Viola, Effects [Processing] – Eyvind Kang
Any questions -> support@pro-jazz.com. По всем вопросам пишите -> support@pro-jazz.com
08:31
196
Нет комментариев. Ваш будет первым!