Вы используете незарегистрированную версию компонента "Вкладки"!

Поиск

(Avant-Garde Jazz, Free Improvisation) Little Women (Darius Jones, Travis Laplante, Andrew Smiley, Jason Nazary) - Throat (2010), Lung (2013) [AUM Fidelity], FLAC (tracks+.cue), lossless

(Avant-Garde Jazz, Free Improvisation) Little Women (Darius Jones, Travis Laplante, Andrew Smiley, Jason Nazary) - Throat (2010), Lung (2013) [AUM Fidelity], FLAC (tracks+.cue), lossless
Треклист:
Little Women
Throat & Lung

Darius Jones - alto sax
Travis Laplante - tenor sax
Andrew Smiley - guitar
Jason Nazary - drumsЖанр: Avant-Garde Jazz, Free Improvisation
Страна-производитель диска: USA
Издатель (лейбл): AUM Fidelity
Номер по каталогу: AUM061 / AUM076
Аудиокодек: FLAC (*.flac)
Тип рипа: tracks+.cue
Битрейт аудио: lossless
Продолжительность: 47:30 + 54:04
Наличие сканов в содержимом раздачи: нет
Источник (релизер): спасибо
impetuous & simplicio
Треклист:
1. Throat I
2. Throat II
3. Throat III
4. Throat IV
5. Throat V
6. Throat VI
7. Throat VII
 
Лог создания рипа
Exact Audio Copy V0.99 prebeta 4 from 23. January 2008
EAC extraction logfile from 1. May 2010, 11:31
Little Women / Throat
Used drive : TSSTcorpCDDVDW SH-S223B Adapter: 3 ID: 0
Read mode : Secure
Utilize accurate stream : Yes
Defeat audio cache : Yes
Make use of C2 pointers : No
Read offset correction : 6
Overread into Lead-In and Lead-Out : No
Fill up missing offset samples with silence : Yes
Delete leading and trailing silent blocks : No
Null samples used in CRC calculations : Yes
Used interface : Native Win32 interface for Win NT & 2000
Gap handling : Appended to previous track
Used output format : User Defined Encoder
Selected bitrate : 768 kBit/s
Quality : High
Add ID3 tag : No
Command line compressor : C:\Program Files\Exact Audio Copy\FLAC\FLAC.EXE
Additional command line options : -8 -V -T "ARTIST=%a" -T "TITLE=%t" -T "ALBUM=%g" -T "DATE=%y" -T "TRACKNUMBER=%n" -T "GENRE=%m" -T "COMMENT=%e" %s -o %d
TOC of the extracted CD
Track | Start | Length | Start sector | End sector
---------------------------------------------------------
1 | 0:00.00 | 4:48.67 | 0 | 21666
2 | 4:48.67 | 5:02.63 | 21667 | 44379
3 | 9:51.55 | 7:17.42 | 44380 | 77196
4 | 17:09.22 | 11:37.17 | 77197 | 129488
5 | 28:46.39 | 5:56.60 | 129489 | 156248
6 | 34:43.24 | 4:20.72 | 156249 | 175820
7 | 39:04.21 | 2:10.14 | 175821 | 185584
Track 1
Filename D:\eac\Little Women - Throat (2010)\01 - Throat I.wav
Pre-gap length 0:00:02.00
Peak level 97.7 %
Track quality 99.9 %
Test CRC 5CA68AE8
Copy CRC 5CA68AE8
Track not present in AccurateRip database
Copy OK
Track 2
Filename D:\eac\Little Women - Throat (2010)\02 - Throat II.wav
Peak level 98.5 %
Track quality 99.9 %
Test CRC 15032401
Copy CRC 15032401
Track not present in AccurateRip database
Copy OK
Track 3
Filename D:\eac\Little Women - Throat (2010)\03 - Throat III.wav
Peak level 97.7 %
Track quality 100.0 %
Test CRC BE7E7FF0
Copy CRC BE7E7FF0
Track not present in AccurateRip database
Copy OK
Track 4
Filename D:\eac\Little Women - Throat (2010)\04 - Throat IV.wav
Peak level 98.9 %
Track quality 100.0 %
Test CRC EEDE3625
Copy CRC EEDE3625
Track not present in AccurateRip database
Copy OK
Track 5
Filename D:\eac\Little Women - Throat (2010)\05 - Throat V.wav
Peak level 97.7 %
Track quality 100.0 %
Test CRC BACE15E6
Copy CRC BACE15E6
Track not present in AccurateRip database
Copy OK
Track 6
Filename D:\eac\Little Women - Throat (2010)\06 - Throat VI.wav
Peak level 98.1 %
Track quality 100.0 %
Test CRC 3547631A
Copy CRC 3547631A
Track not present in AccurateRip database
Copy OK
Track 7
Filename D:\eac\Little Women - Throat (2010)\07 - Throat VII.wav
Peak level 97.7 %
Track quality 99.9 %
Test CRC 98E96D65
Copy CRC 98E96D65
Track not present in AccurateRip database
Copy OK
None of the tracks are present in the AccurateRip database
No errors occurred
End of status report
 
Содержание индексной карты (.CUE)
PERFORMER "Little Women"
TITLE "Throat"
REM DATE 2010
REM GENRE "Jazz"
FILE "01 - Throat I.flac" WAVE
TRACK 01 AUDIO
PERFORMER "Little Women"
TITLE "Throat I"
INDEX 01 00:00:00
FILE "02 - Throat II.flac" WAVE
TRACK 02 AUDIO
PERFORMER "Little Women"
TITLE "Throat II"
INDEX 01 00:00:00
FILE "03 - Throat III.flac" WAVE
TRACK 03 AUDIO
PERFORMER "Little Women"
TITLE "Throat III"
INDEX 01 00:00:00
FILE "04 - Throat IV.flac" WAVE
TRACK 04 AUDIO
PERFORMER "Little Women"
TITLE "Throat IV"
INDEX 01 00:00:00
FILE "05 - Throat V.flac" WAVE
TRACK 05 AUDIO
PERFORMER "Little Women"
TITLE "Throat V"
INDEX 01 00:00:00
FILE "06 - Throat VI.flac" WAVE
TRACK 06 AUDIO
PERFORMER "Little Women"
TITLE "Throat VI"
INDEX 01 00:00:00
FILE "07 - Throat VII.flac" WAVE
TRACK 07 AUDIO
PERFORMER "Little Women"
TITLE "Throat VII"
INDEX 01 00:00:00
 
Об альбоме
"The all-male quartet named Little Women has very little to do with the image their moniker might imply. For their second album, the Brooklyn-based ensemble furthers their explorations of sound into free improvisation based on a noise-driven palette that, in essence, goes beyond the post-Albert Ayler or Peter Brötzmann sounds you would naturally expect. Saxophonists Darius Jones (alto) and Travis LaPlante (tenor) rip, snort, and rant on these seven tracks that are set up as a suite and have few connective tissues, except that of raw power. Electric guitarist Andrew Smiley is also skronking along, while drummer Jason Nazary tends to purposefully hit and miss with reckless abandon in the rhythmic department. Though there are less frenzied and chaotic passages that come across as more macabre or painstakingly derived, the group is on a mass attack of sensory overload for the most part -- going for the throat, as it were -- with unabashed and fearless blasts of shouted angst and screamo-type jazz. It's really as simple as that, yet more complicated emotionally when you listen to this music under the surface. Appealing to very specific tastes and not for even garden-variety creative music listeners, Little Women offers something unique, if not disturbing, definitely new, and runs parallel to similar groups like the Empty Cage Quartet or Polwechsel. "



Треклист:
1. Lung
 
Лог создания рипа
Exact Audio Copy V1.0 beta 3 from 29. August 2011
EAC extraction logfile from 22. April 2013, 22:52
Little Women / Lung
Used drive : HL-DT-STDVD-RAM GH22NP21 Adapter: 0 ID: 0
Read mode : Secure
Utilize accurate stream : Yes
Defeat audio cache : Yes
Make use of C2 pointers : No
Read offset correction : 102
Overread into Lead-In and Lead-Out : No
Fill up missing offset samples with silence : Yes
Delete leading and trailing silent blocks : No
Null samples used in CRC calculations : Yes
Used interface : Native Win32 interface for Win NT & 2000
Gap handling : Appended to previous track
Used output format : User Defined Encoder
Selected bitrate : 128 kBit/s
Quality : High
Add ID3 tag : No
Command line compressor : C:\Program Files (x86)\FLAC\flac.exe
Additional command line options : -8 -V -T "ARTIST=%artist%" -T "TITLE=%title%" -T "ALBUM=%albumtitle%" -T "DATE=%year%" -T "TRACKNUMBER=%tracknr%" -T "GENRE=%genre%" -T "PERFORMER=%albuminterpret%" -T "COMPOSER=%composer%" %haslyrics%--tag-from-file=LYRICS="%lyricsfile%"%haslyrics% -T "ALBUMARTIST=%albumartist%" -T "DISCNUMBER=%cdnumber%" -T "TOTALDISCS=%totalcds%" -T "TOTALTRACKS=%numtracks%" -T "COMMENT=%comment%" %source% -o %dest%
TOC of the extracted CD
Track | Start | Length | Start sector | End sector
---------------------------------------------------------
1 | 0:00.00 | 42:13.02 | 0 | 189976
Track 1
Filename M:\Little Women\[2013] Lung []\01 - Little Women - Lung.wav
Pre-gap length 0:00:02.00
Peak level 97.6 %
Extraction speed 2.6 X
Track quality 100.0 %
Test CRC 93AA92FC
Copy CRC 93AA92FC
Track not present in AccurateRip database
Copy OK
None of the tracks are present in the AccurateRip database
No errors occurred
End of status report
---- CUETools DB Plugin V2.1.3
[CTDB TOCID: rwGEXBR4bcpqTKT7r8ltDzm3SKk-] disk not present in database, Submit result: rwGEXBR4bcpqTKT7r8ltDzm3SKk- has been uploaded
==== Log checksum A9318040B3598FAB0C129F54592774A529592F8827C2D5758D6ADDF8EDCBC309 ====
 
Содержание индексной карты (.CUE)
REM GENRE Jazz
REM DATE 2013
REM DISCID 0209E501
REM COMMENT "ExactAudioCopy v1.0b3"
PERFORMER "Little Women"
TITLE "Lung"
FILE "01 - Little Women - Lung.wav" WAVE
TRACK 01 AUDIO
TITLE "Lung"
PERFORMER "Little Women"
INDEX 01 00:00:00
 
Об альбоме
Listening to single-take forty-plus minute group performances is not a casual affair, it’s embarking on an odyssey. Such was the case when absorbing Ivo Perelman’s forty-three minute Serendipity and again just days later in soaking up Little Women’s forty-two minute Lung.
Lung is collaborative like Perelman’s album-length track, but Little Women noodled on this one a while before committing it to tape, and the coordination and anticipation found within the cinematic, episodic flow of the piece probably required a little forethought, anyway. It’s not short on surprises, though.
In truth, the cinematic progression was intended. “When working with this new purely collaborative creative process, we found that the best way to communicate the sounds/feelings/form/arrangement we were hearing was by describing visualizations or scenes, much like describing a movie, or a dream” they write. What that means in practical terms is that the quartet didn’t keep their collective foot mashed on the gas pedal from beginning to end as they did with Throat (2010), but rather, make use of a fifth instrument: silence.
For the first minute, silence is all that’s “played,” but barely audible breathing emerges. Jason Nazary’s meekly enter by way of gently tapped cymbals, followed a couple of minutes later by the tenderly interlocking saxes of Darius Jones (alto) and Travis Laplante (tenor), along with the radiant guitar of Andrew Smiley. That motif in turn falls away to a four-part vocal drone that goes on for two minutes until abruptly dismissed by a single note blast of sax. The remaining twenty-four minutes travels through segments of peace, uncertainty, surprise, chaos and convulsions. Some quieter moments are abruptly interrupted randomly by horn blasts, on another occasion, a two-horn figure is played deliberately out of tune and during the final segment, near silence is broken up by odd sax cries tangled with equally odd vocal sounds.
Little Women’s follow up to the brutal Throat was bound to be intriguing, especially since Jones had in the interim firmly established himself as the hottest young alto saxophonist in the Downtown New York improvised music scene. The band responded by forgetting about success and reputation, and continuing to pursue their instincts. Their instincts rewarded them once again.
Молодые да ранние! Очень любопытный и экспрессивный коллектив нью-йоркских музыкантов.
К сожалению, на первый диск не было .cue - для симметрии слепил самодельный.
Any questions -> support@pro-jazz.com. По всем вопросам пишите -> support@pro-jazz.com
12:50
164
Нет комментариев. Ваш будет первым!