Вы используете незарегистрированную версию компонента "Вкладки"!

Поиск

(Avant-Garde Jazz, Free Improvisation) Kenny Wheeler, Peter O' Mara, Wayne Darling, Bill Elgart - Kenny Wheeler, Peter O' Mara, Wayne Darling, Bill Elgart - 1991, FLAC (tracks+.cue), lossless

Треклист:
•Kenny Wheeler, Peter O' Mara, Wayne Darling, Bill Elgart•
Жанр: Avant-Garde Jazz, Free Improvisation
Страна-производитель диска: Germany
Год издания: 1991
Издатель (лейбл): Koala Records
Номер по каталогу: CD P 22
Аудиокодек: FLAC (*.flac)
Тип рипа: tracks+.cue
Битрейт аудио: lossless
Продолжительность: 01:03:37
Источник (релизер): d'Avignon
Наличие сканов в содержимом раздачи: да
Треклист:
01.Bill's Place [06:45]
02.The Beauty And The Past [07:37]
03.Terrible Ooze [05:06]
04.Old Ballad [08:42]
05.Sun King [07:01]
06.Everybody's Song But My Own [08:04]
07.Tik - Takn [07:31]
08.Under The Gun With Peanuts [12:49]
Personnel:
Kenny Wheeler - trumpet, flugelhorn
Peter O'Mara - guitar
Wayne Darling - bass
Bill Elgart – drums
 
Лог создания рипа
Exact Audio Copy V1.0 beta 2 from 29. April 2011
EAC extraction logfile from 17. May 2012, 16:14
Kenny Wheeler, Bill Elgart, Peter O' Mara, Wayne Darling / Kenny Wheeler, Bill Elgart, Peter O' Mara, Wayne Darling
Used drive : TSSTcorpCDDVDW SH-S222L Adapter: 0 ID: 0
Read mode : Secure
Utilize accurate stream : Yes
Defeat audio cache : Yes
Make use of C2 pointers : No
Read offset correction : 6
Overread into Lead-In and Lead-Out : No
Fill up missing offset samples with silence : Yes
Delete leading and trailing silent blocks : No
Null samples used in CRC calculations : Yes
Used interface : Native Win32 interface for Win NT & 2000
Gap handling : Appended to previous track
Used output format : User Defined Encoder
Selected bitrate : 768 kBit/s
Quality : High
Add ID3 tag : No
Command line compressor : C:\Program Files\Exact Audio Copy\FLAC\FLAC.EXE
Additional command line options : -6 -V -T "ARTIST=%artist%" -T "TITLE=%title%" -T "ALBUM=%albumtitle%" -T "DATE=%year%" -T "TRACKNUMBER=%tracknr%" -T "GENRE=%genre%" -T "COMMENT=%comment%" -T "BAND=%albuminterpret%" -T "COMPOSER=%composer%" %haslyrics%--ta
TOC of the extracted CD
Track | Start | Length | Start sector | End sector
---------------------------------------------------------
1 | 0:00.33 | 6:45.00 | 33 | 30407
2 | 6:45.33 | 7:37.37 | 30408 | 64719
3 | 14:22.70 | 5:06.38 | 64720 | 87707
4 | 19:29.33 | 8:42.00 | 87708 | 126857
5 | 28:11.33 | 7:01.00 | 126858 | 158432
6 | 35:12.33 | 8:04.37 | 158433 | 194769
7 | 43:16.70 | 7:31.38 | 194770 | 228632
8 | 50:48.33 | 12:49.25 | 228633 | 286332
Track 1
Filename E:\CLASSICAL\14.post\Wheeler, Kenny\01. Kenny Wheeler, Bill Elgart, Peter O' Mara, Wayne Darling - Bill's Place.wav
Pre-gap length 0:00:02.33
Peak level 93.7 %
Extraction speed 4.8 X
Track quality 100.0 %
Test CRC 8A23DC03
Copy CRC 8A23DC03
Accurately ripped (confidence 1) [33E6FD90] (AR v2)
Copy OK
Track 2
Filename E:\CLASSICAL\14.post\Wheeler, Kenny\02. Kenny Wheeler, Bill Elgart, Peter O' Mara, Wayne Darling - The Beauty And The Past.wav
Pre-gap length 0:00:02.48
Peak level 92.4 %
Extraction speed 5.0 X
Track quality 99.9 %
Test CRC 94297204
Copy CRC 94297204
Accurately ripped (confidence 1) [614BAD33] (AR v2)
Copy OK
Track 3
Filename E:\CLASSICAL\14.post\Wheeler, Kenny\03. Kenny Wheeler, Bill Elgart, Peter O' Mara, Wayne Darling - Terrible Ooze.wav
Pre-gap length 0:00:01.20
Peak level 81.7 %
Extraction speed 6.0 X
Track quality 100.0 %
Test CRC F73F95E3
Copy CRC F73F95E3
Accurately ripped (confidence 1) [A9E91CB8] (AR v2)
Copy OK
Track 4
Filename E:\CLASSICAL\14.post\Wheeler, Kenny\04. Kenny Wheeler, Bill Elgart, Peter O' Mara, Wayne Darling - Old Ballad.wav
Pre-gap length 0:00:01.00
Peak level 71.0 %
Extraction speed 6.9 X
Track quality 100.0 %
Test CRC 75E5294E
Copy CRC 75E5294E
Accurately ripped (confidence 1) [2816B2FF] (AR v2)
Copy OK
Track 5
Filename E:\CLASSICAL\14.post\Wheeler, Kenny\05. Kenny Wheeler, Bill Elgart, Peter O' Mara, Wayne Darling - Sun King.wav
Pre-gap length 0:00:02.58
Peak level 83.4 %
Extraction speed 7.4 X
Track quality 100.0 %
Test CRC E6B2B2DB
Copy CRC E6B2B2DB
Accurately ripped (confidence 1) [36C6FA3B] (AR v2)
Copy OK
Track 6
Filename E:\CLASSICAL\14.post\Wheeler, Kenny\06. Kenny Wheeler, Bill Elgart, Peter O' Mara, Wayne Darling - Everybody's Song But My Own.wav
Pre-gap length 0:00:02.30
Peak level 85.9 %
Extraction speed 8.1 X
Track quality 100.0 %
Test CRC BEA0BAB1
Copy CRC BEA0BAB1
Accurately ripped (confidence 1) [D1908E4F] (AR v2)
Copy OK
Track 7
Filename E:\CLASSICAL\14.post\Wheeler, Kenny\07. Kenny Wheeler, Bill Elgart, Peter O' Mara, Wayne Darling - Tik - Takn.wav
Pre-gap length 0:00:01.00
Peak level 78.7 %
Extraction speed 7.5 X
Track quality 99.9 %
Test CRC 7F3EE0E1
Copy CRC 7F3EE0E1
Accurately ripped (confidence 1) [C898BD96] (AR v2)
Copy OK
Track 8
Filename E:\CLASSICAL\14.post\Wheeler, Kenny\08. Kenny Wheeler, Bill Elgart, Peter O' Mara, Wayne Darling - Under The Gun With Peanuts.wav
Pre-gap length 0:00:01.53
Peak level 93.5 %
Extraction speed 9.5 X
Track quality 100.0 %
Test CRC D01AD21B
Copy CRC D01AD21B
Accurately ripped (confidence 1) [006CD967] (AR v2)
Copy OK
All tracks accurately ripped
No errors occurred
End of status report
==== Log checksum A5D1D04B4FABF256CE24ED9ED507EEDC706B601CEA2529C272932505F1928AFA ====
 
Содержание индексной карты (.CUE)
REM GENRE Jazz
REM DATE 1991
REM DISCID 640EE908
REM COMMENT "ExactAudioCopy v1.0b2"
PERFORMER "Kenny Wheeler, Bill Elgart, Peter O' Mara, Wayne Darling"
TITLE "Kenny Wheeler, Bill Elgart, Peter O' Mara, Wayne Darling"
FILE "01. Kenny Wheeler, Bill Elgart, Peter O' Mara, Wayne Darling - Bill's Place.wav" WAVE
TRACK 01 AUDIO
TITLE "Bill's Place"
PERFORMER "Kenny Wheeler, Bill Elgart, Peter O' Mara, Wayne Darling"
PREGAP 00:00:33
INDEX 01 00:00:00
TRACK 02 AUDIO
TITLE "The Beauty And The Past"
PERFORMER "Kenny Wheeler, Bill Elgart, Peter O' Mara, Wayne Darling"
INDEX 00 06:42:27
FILE "02. Kenny Wheeler, Bill Elgart, Peter O' Mara, Wayne Darling - The Beauty And The Past.wav" WAVE
INDEX 01 00:00:00
TRACK 03 AUDIO
TITLE "Terrible Ooze"
PERFORMER "Kenny Wheeler, Bill Elgart, Peter O' Mara, Wayne Darling"
INDEX 00 07:36:17
FILE "03. Kenny Wheeler, Bill Elgart, Peter O' Mara, Wayne Darling - Terrible Ooze.wav" WAVE
INDEX 01 00:00:00
TRACK 04 AUDIO
TITLE "Old Ballad"
PERFORMER "Kenny Wheeler, Bill Elgart, Peter O' Mara, Wayne Darling"
INDEX 00 05:05:38
FILE "04. Kenny Wheeler, Bill Elgart, Peter O' Mara, Wayne Darling - Old Ballad.wav" WAVE
INDEX 01 00:00:00
TRACK 05 AUDIO
TITLE "Sun King"
PERFORMER "Kenny Wheeler, Bill Elgart, Peter O' Mara, Wayne Darling"
INDEX 00 08:39:17
FILE "05. Kenny Wheeler, Bill Elgart, Peter O' Mara, Wayne Darling - Sun King.wav" WAVE
INDEX 01 00:00:00
TRACK 06 AUDIO
TITLE "Everybody's Song But My Own"
PERFORMER "Kenny Wheeler, Bill Elgart, Peter O' Mara, Wayne Darling"
INDEX 00 06:58:45
FILE "06. Kenny Wheeler, Bill Elgart, Peter O' Mara, Wayne Darling - Everybody's Song But My Own.wav" WAVE
INDEX 01 00:00:00
TRACK 07 AUDIO
TITLE "Tik - Takn"
PERFORMER "Kenny Wheeler, Bill Elgart, Peter O' Mara, Wayne Darling"
INDEX 00 08:03:37
FILE "07. Kenny Wheeler, Bill Elgart, Peter O' Mara, Wayne Darling - Tik - Takn.wav" WAVE
INDEX 01 00:00:00
TRACK 08 AUDIO
TITLE "Under The Gun With Peanuts"
PERFORMER "Kenny Wheeler, Bill Elgart, Peter O' Mara, Wayne Darling"
INDEX 00 07:29:60
FILE "08. Kenny Wheeler, Bill Elgart, Peter O' Mara, Wayne Darling - Under The Gun With Peanuts.wav" WAVE
INDEX 01 00:00:00
Any questions -> support@pro-jazz.com. По всем вопросам пишите -> support@pro-jazz.com
00:52
189
Нет комментариев. Ваш будет первым!