Вы используете незарегистрированную версию компонента "Вкладки"!

Поиск

(Avant-Garde Jazz, Free Improvisation) Kahil El'Zabar's Ritual Trio - Africa N' da Blues - 2000, FLAC (tracks+.cue), lossless

(Avant-Garde Jazz, Free Improvisation) Kahil El'Zabar's Ritual Trio - Africa N' da Blues - 2000, FLAC (tracks+.cue), lossless
Треклист:
•Kahil El'Zabar's Ritual Trio - Africa N' da Blues•
Жанр: Avant-Garde Jazz, Free Improvisation
Страна-производитель диска: Россия
Год издания: 2000
Аудиокодек: FLAC (*.flac)
Тип рипа: tracks+.cue
Битрейт аудио: lossless
Продолжительность: 01:11:21
Источник (релизер): Рип с диска.
Наличие сканов в содержимом раздачи: да
Треклист:
01.Ka-Real (Take 2) [12:38]
02.Africanos / Latinos [09:52]
03.Miles' Mode [07:21]
04.Autumn Leaves [11:26]
05.Africa N'da Blues [07:34]
06.Pharoas' Blues [11:42]
07.Ka-Real (Take 1) [10:45]
Personnel:
Kahil El'Zabar - drums
Pharoah Sanders - tenor sax
Ari Brown - piano, tenor and soprano sax
Malachi Favors - bass
Susana Sandoval - spoken word artist on 2
 
Лог создания рипа
Exact Audio Copy V1.0 beta 3 from 29. August 2011
Отчёт EAC об извлечении, выполненном 4. ноября 2012, 14:08
Kahil El'Zabar's Ritual Trio / Africa N'da Blues
Дисковод: Optiarc DVD RW AD-5200A Adapter: 0 ID: 0
Режим чтения : Достоверность
Использование точного потока : Да
Отключение кэша аудио : Да
Использование указателей C2 : Нет
Коррекция смещения при чтении : 48
Способность читать области Lead-in и Lead-out : Нет
Заполнение пропущенных сэмплов тишиной : Да
Удаление блоков с тишиной в начале и конце : Нет
При вычислениях CRC использовались нулевые сэмплы : Да
Интерфейс : Встроенный Win32-интерфейс для Win NT/2000
Обработка зазоров : Добавлено к предыдущему треку
Выходной формат : Пользовательский кодировщик
Выбранный битрейт : 128 kBit/s
Качество : Высокий
Добавление ID3-тега : Нет
Утилита сжатия : C:\Program Files\Exact Audio Copy\Flac\flac.exe
Дополнительные параметры : -V -8 -T "Genre=%genre%" -T "Artist=%artist%" -T "Title=%title%" -T "Album=%albumtitle%" -T "Date=%year%" -T "Tracknumber=%tracknr%" -T "Comment=%comment%" %source%
TOC извлечённого CD
Трек | Старт | Длительность | Начальный сектор | Конечный сектор
---------------------------------------------------------------------
1 | 0:00.00 | 12:38.67 | 0 | 56916
2 | 12:38.67 | 9:52.30 | 56917 | 101346
3 | 22:31.22 | 7:21.70 | 101347 | 134491
4 | 29:53.17 | 11:26.65 | 134492 | 186006
5 | 41:20.07 | 7:34.35 | 186007 | 220091
6 | 48:54.42 | 11:42.13 | 220092 | 272754
7 | 60:36.55 | 10:45.15 | 272755 | 321144
Трек 1
Имя файла F:\2000.Kahil El'Zabar's Ritual Trio - Africa N' da Blues\01. Kahil El'Zabar's Ritual Trio - Ka-Real (Take 2).wav
Длина предзазора 0:00:02.00
Пиковый уровень 99.9 %
Скорость извлечения 2.6 X
Качество трека 99.9 %
CRC теста 864E1621
CRC копии 864E1621
Точность не определена (достоверность 5) [BC1EFA11], AccurateRip вернул [4DC67F91] (AR v2)
Копирование... OK
Трек 2
Имя файла F:\2000.Kahil El'Zabar's Ritual Trio - Africa N' da Blues\02. Khalil El'Zabar's Ritual Trio - Africanos , Latinos.wav
Пиковый уровень 99.7 %
Скорость извлечения 3.5 X
Качество трека 100.0 %
CRC теста B0B99A7C
CRC копии B0B99A7C
Точность не определена (достоверность 5) [B27B2A0B], AccurateRip вернул [469F07ED] (AR v2)
Копирование... OK
Трек 3
Имя файла F:\2000.Kahil El'Zabar's Ritual Trio - Africa N' da Blues\03. Kahil El'Zabar's Ritual Trio - Miles' Mode.wav
Пиковый уровень 99.9 %
Скорость извлечения 3.6 X
Качество трека 100.0 %
CRC теста ED8E0F18
CRC копии ED8E0F18
Точность не определена (достоверность 5) [3133C0FA], AccurateRip вернул [1D496478] (AR v2)
Копирование... OK
Трек 4
Имя файла F:\2000.Kahil El'Zabar's Ritual Trio - Africa N' da Blues\04. Kahil El'Zabar's Ritual Trio - Autumn Leaves.wav
Пиковый уровень 99.8 %
Скорость извлечения 3.6 X
Качество трека 99.9 %
CRC теста 9FD76FAE
CRC копии 9FD76FAE
Точность не определена (достоверность 5) [BC6BDD40], AccurateRip вернул [6210B983] (AR v2)
Копирование... OK
Трек 5
Имя файла F:\2000.Kahil El'Zabar's Ritual Trio - Africa N' da Blues\05. Kahil El'Zabar's Ritual Trio - Africa N'da Blues.wav
Пиковый уровень 100.0 %
Скорость извлечения 3.4 X
Качество трека 99.9 %
CRC теста 6B217BFF
CRC копии 6B217BFF
Точность не определена (достоверность 5) [1BDAA61E], AccurateRip вернул [35EF7FEE] (AR v2)
Копирование... OK
Трек 6
Имя файла F:\2000.Kahil El'Zabar's Ritual Trio - Africa N' da Blues\06. Kahil El'Zabar's Ritual Trio - Pharoas' Blues.wav
Пиковый уровень 77.3 %
Скорость извлечения 3.6 X
Качество трека 99.9 %
CRC теста D6716508
CRC копии D6716508
Точность не определена (достоверность 5) [F9C77F00], AccurateRip вернул [E902188D] (AR v2)
Копирование... OK
Трек 7
Имя файла F:\2000.Kahil El'Zabar's Ritual Trio - Africa N' da Blues\07. Kahil El'Zabar's Ritual Trio - Ka-Real (Take 1).wav
Пиковый уровень 66.9 %
Скорость извлечения 3.7 X
Качество трека 100.0 %
CRC теста 2AE8E3FE
CRC копии 2AE8E3FE
Точность не определена (достоверность 3) [08D579F1], AccurateRip вернул [AA78F4C4] (AR v2)
Копирование... OK
Ни один трек не прошёл проверки на точность
В вашей базе может быть иной вариант штамповки диска
Ошибок не произошло
Конец отчёта
==== Контрольная сумма отчёта 3DB7E3C6A6CE998EB28ABF5A3D39108B5E9A28A75F903872F151ED90552428E6 ====
 
Содержание индексной карты (.CUE)
REM GENRE Jazz
REM DATE 2000
REM DISCID 6910B907
REM COMMENT "ExactAudioCopy v1.0b3"
PERFORMER "Kahil El'Zabar's Ritual Trio"
TITLE "Africa N'da Blues"
FILE "01. Kahil El'Zabar's Ritual Trio - Ka-Real (Take 2).wav" WAVE
TRACK 01 AUDIO
TITLE "Ka-Real (Take 2)"
PERFORMER "Kahil El'Zabar's Ritual Trio"
INDEX 01 00:00:00
FILE "02. Khalil El'Zabar's Ritual Trio - Africanos , Latinos.wav" WAVE
TRACK 02 AUDIO
TITLE "Africanos / Latinos"
PERFORMER "Khalil El'Zabar's Ritual Trio"
INDEX 01 00:00:00
FILE "03. Kahil El'Zabar's Ritual Trio - Miles' Mode.wav" WAVE
TRACK 03 AUDIO
TITLE "Miles' Mode"
PERFORMER "Kahil El'Zabar's Ritual Trio"
INDEX 01 00:00:00
FILE "04. Kahil El'Zabar's Ritual Trio - Autumn Leaves.wav" WAVE
TRACK 04 AUDIO
TITLE "Autumn Leaves"
PERFORMER "Kahil El'Zabar's Ritual Trio"
INDEX 01 00:00:00
FILE "05. Kahil El'Zabar's Ritual Trio - Africa N'da Blues.wav" WAVE
TRACK 05 AUDIO
TITLE "Africa N'da Blues"
PERFORMER "Kahil El'Zabar's Ritual Trio"
INDEX 01 00:00:00
FILE "06. Kahil El'Zabar's Ritual Trio - Pharoas' Blues.wav" WAVE
TRACK 06 AUDIO
TITLE "Pharoas' Blues"
PERFORMER "Kahil El'Zabar's Ritual Trio"
INDEX 01 00:00:00
FILE "07. Kahil El'Zabar's Ritual Trio - Ka-Real (Take 1).wav" WAVE
TRACK 07 AUDIO
TITLE "Ka-Real (Take 1)"
PERFORMER "Kahil El'Zabar's Ritual Trio"
INDEX 01 00:00:00
 
Доп. информация
Очень часто за авангардный джаз выдают беспорядочное бряцканье по клавишам и другим многострадальным инструментам. И не надо никаких отсылок к творчеству Штокгаузена и паралелей с Кейджем, Пендерецким или Шнитке. Нет его там, да и все! Эх, перечислить бы таких музыкантов. И совсем ничтожных, и людей солидных, с именем. Да стоит ли? Вот перед нами диск людей, которые НИКОГДА не были замешаны в подобной лаже. Никогда не изменяли музыке, стилистически определенной как фри–джаз. Ritual Trio возглавляемое барабанщиком и перкуссионистом Kahil El’Zabar уже в течении многих лет играет прекрасный фри–джаз в густой этно-окраске. Прекрасные, бескомпромиссные альбомы этого коллектива считаются жемчужиной любой фри–джазовой коллекции. Данный альбом еще знаменателем и тем, что в записи его принимал участие и другой, не менее признанный музыкант, бывший партнер самого великого John Coltrane знаменитый тенор-саксафонист Фарао Сандерс, один из тех, с кем гуру современного джаза входил во фри-джаз. Но ошибутся те, кто ждет от "Africa N'da Blues" бескомпромиссной атональности. Образцовым примером тому может послужить колтрейновская пьеса "Miles' Mode". Весьма заметен в этом диске также и этнический акцент. В экзотичной африканской манере выдержана "Pharaoh's Song" эль-Забара, а совместно с чикагской поэтессой Сусанной Сандоваль он написал наиболее неожиданную для этого альбома, имеющую очевидный латинский акцент композицию "Africanos/Latinos", где Сандоваль еще и поет. Сандерс с годами стал играть поспокойнее и, может быть, поэтому за его музыкальными мыслями легче следить. В "Miles' Mode" они с Ари Брауном блестяще играют дуэт двух тенор-саксов. Лидер трио проявил себя как весьма разносторонний композитор, написавший для этого альбома три не похожие друг на друга, но весьма интересные пьесы, в том числе и титульную, в развитии темы которой угадывается техника музыкальной вибрации, оказывающую медитативное влияние на слушателя. Похоже, авангардисты из "Ritual Trio" строят свой новый джаз из старых добротных, проверенных временем материалов: блюз и разнообразная этника. Что ж, и в начале нового века этот рецепт выглядит убедительным.(c) Леонид Аускерн
Any questions -> support@pro-jazz.com. По всем вопросам пишите -> support@pro-jazz.com
05:04
194
Нет комментариев. Ваш будет первым!