Вы используете незарегистрированную версию компонента "Вкладки"!

Поиск

(Avant-Garde Jazz, Free Improvisation) John Coltrane - Transition - 1998, FLAC (tracks+.cue), lossless

(Avant-Garde Jazz, Free Improvisation) John Coltrane - Transition - 1998, FLAC (tracks+.cue), lossless
Треклист:
•John Coltrane - Transition•
Жанр: Avant-Garde Jazz, Free Improvisation
Страна-производитель диска: Россия
Год издания диска: 1998
Аудиокодек: FLAC (*.flac)
Тип рипа: tracks+.cue
Битрейт аудио: lossless
Продолжительность: 01:10:50
Источник (релизер): Рип с диска.
Наличие сканов в содержимом раздачи: да
Треклист:
01. Transition
02. Suite
03. Vigil
04. Welcome
05. Things Ain't What They Used To Be
06. Wheelin
Personnel:
John Coltrane - ts
McCoy Tyner - p
Jimmy Garrison - b
Elvin Jones - dr
 
Лог создания рипа
Exact Audio Copy V1.0 beta 3 from 29. August 2011
Отчёт EAC об извлечении, выполненном 25. декабря 2011, 2:02
John Coltrane Quartet / Transition
Дисковод: TSSTcorpCDDVDW SH-S223C Adapter: 5 ID: 0
Режим чтения : Достоверность
Использование точного потока : Да
Отключение кэша аудио : Да
Использование указателей C2 : Нет
Коррекция смещения при чтении : 697
Способность читать области Lead-in и Lead-out : Нет
Заполнение пропущенных сэмплов тишиной : Да
Удаление блоков с тишиной в начале и конце : Нет
При вычислениях CRC использовались нулевые сэмплы : Да
Интерфейс : Установленный внешний ASPI-интерфейс
Обработка зазоров : Добавлено к предыдущему треку
Выходной формат : Пользовательский кодировщик
Выбранный битрейт : 128 kBit/s
Качество : Высокий
Добавление ID3-тега : Нет
Утилита сжатия : C:\Program Files\Exact Audio Copy\Flac\flac.exe
Дополнительные параметры : -V -8 -T "Genre=%genre%" -T "Artist=%artist%" -T "Title=%title%" -T "Album=%albumtitle%" -T "Date=%year%" -T "Tracknumber=%tracknr%" -T "Comment=%comment%" %source%
TOC извлечённого CD
Трек | Старт | Длительность | Начальный сектор | Конечный сектор
---------------------------------------------------------------------
1 | 0:00.00 | 15:30.29 | 0 | 69778
2 | 15:30.29 | 21:20.22 | 69779 | 165800
3 | 36:50.51 | 9:44.62 | 165801 | 209662
4 | 46:35.38 | 5:23.40 | 209663 | 233927
5 | 51:59.03 | 8:26.13 | 233928 | 271890
6 | 60:25.16 | 10:24.68 | 271891 | 318758
Трек 1
Имя файла C:\Шахматы\1998.John Coltrane - Transition\01. Transition.wav
Длина предзазора 0:00:02.00
Пиковый уровень 97.0 %
Скорость извлечения 2.5 X
Качество трека 100.0 %
CRC теста 56DF349A
CRC копии 56DF349A
Трек не обнаружен в базе AccurateRip
Копирование... OK
Трек 2
Имя файла C:\Шахматы\1998.John Coltrane - Transition\02. Suite.wav
Длина предзазора 0:00:01.14
Пиковый уровень 100.0 %
Скорость извлечения 3.3 X
Качество трека 100.0 %
CRC теста 7E1AE9B5
CRC копии 7E1AE9B5
Трек не обнаружен в базе AccurateRip
Копирование... OK
Трек 3
Имя файла C:\Шахматы\1998.John Coltrane - Transition\03. Vigil.wav
Длина предзазора 0:00:00.62
Пиковый уровень 93.8 %
Скорость извлечения 3.7 X
Качество трека 100.0 %
CRC теста 1FA720B2
CRC копии 1FA720B2
Трек не обнаружен в базе AccurateRip
Копирование... OK
Трек 4
Имя файла C:\Шахматы\1998.John Coltrane - Transition\04. Welcome.wav
Длина предзазора 0:00:02.35
Пиковый уровень 88.7 %
Скорость извлечения 3.7 X
Качество трека 100.0 %
CRC теста F37AFF90
CRC копии F37AFF90
Трек не обнаружен в базе AccurateRip
Копирование... OK
Трек 5
Имя файла C:\Шахматы\1998.John Coltrane - Transition\05. Things Ain't What They Used To Be.wav
Длина предзазора 0:00:01.43
Пиковый уровень 68.9 %
Скорость извлечения 4.0 X
Качество трека 100.0 %
CRC теста 712A26FA
CRC копии 712A26FA
Трек не обнаружен в базе AccurateRip
Копирование... OK
Трек 6
Имя файла C:\Шахматы\1998.John Coltrane - Transition\06. Wheelin.wav
Длина предзазора 0:00:00.68
Пиковый уровень 84.1 %
Скорость извлечения 4.4 X
Качество трека 100.0 %
CRC теста A214B2D6
CRC копии A214B2D6
Трек не обнаружен в базе AccurateRip
Копирование... OK
Ни одного трека нет в базе AccurateRip
Ошибок не произошло
Конец отчёта
==== Контрольная сумма отчёта 63AAD91FCC76B3F6C44727A67B12317DA7E4DDD9497293BEDCC2E46F57DC4D75 ====
 
Содержание индексной карты (.CUE)
REM GENRE Jazz
REM DATE 1998
REM DISCID 49109A06
REM COMMENT "ExactAudioCopy v1.0b3"
PERFORMER "John Coltrane Quartet"
TITLE "Transition"
FILE "01. Transition.wav" WAVE
TRACK 01 AUDIO
TITLE "Transition"
PERFORMER "John Coltrane Quartet"
INDEX 01 00:00:00
TRACK 02 AUDIO
TITLE "Suite"
PERFORMER "John Coltrane Quartet"
INDEX 00 15:29:15
FILE "02. Suite.wav" WAVE
INDEX 01 00:00:00
TRACK 03 AUDIO
TITLE "Vigil"
PERFORMER "John Coltrane Quartet"
INDEX 00 21:19:35
FILE "03. Vigil.wav" WAVE
INDEX 01 00:00:00
TRACK 04 AUDIO
TITLE "Welcome"
PERFORMER "John Coltrane Quartet"
INDEX 00 09:42:27
FILE "04. Welcome.wav" WAVE
INDEX 01 00:00:00
TRACK 05 AUDIO
TITLE "Things Ain't What They Used To Be"
PERFORMER "John Coltrane Quartet"
INDEX 00 05:21:72
FILE "05. Things Ain't What They Used To Be.wav" WAVE
INDEX 01 00:00:00
TRACK 06 AUDIO
TITLE "Wheelin"
PERFORMER "John Coltrane Quartet"
INDEX 00 08:25:20
FILE "06. Wheelin.wav" WAVE
INDEX 01 00:00:00
Any questions -> support@pro-jazz.com. По всем вопросам пишите -> support@pro-jazz.com
20:09
151
Нет комментариев. Ваш будет первым!