Вы используете незарегистрированную версию компонента "Вкладки"!

Поиск

(Avant-Garde Jazz, Free Improvisation) Jimmy Giuffre, Lee Konitz, Bill Connors, Paul Bley - IAI Festival - I.A.I., APE (image+.cue), lossless

(Avant-Garde Jazz, Free Improvisation) Jimmy Giuffre, Lee Konitz, Bill Connors, Paul Bley - IAI Festival - I.A.I., APE (image+.cue), lossless
Треклист:
•Jimmy Giuffre, Lee Konitz, Bill Connors, Paul Bley - IAI Festival•
Жанр: Avant-Garde Jazz, Free Improvisation
Страна-производитель диска: Italy
Год издания: 1978
Издатель (лейбл): I.A.I.
Номер по каталогу: 123859-2
Аудиокодек: APE (*.ape)
Тип рипа: image+.cue
Битрейт аудио: lossless
Продолжительность: 00:36:03
Источник (релизер): barin99
Наличие сканов в содержимом раздачи: да
Треклист:
01. Blues In The Closet [05:12]
02. The Sad Time [02:34]
03. Spanish Flames [11:26]
04. Enter, Ivory [11:07]
05. From Then To Then [05:44]
Personnel:
Jimmy Giuffre — cl, Bfl, ss, ts
Lee Konitz — as (1, 2, 5)
Bill Connors — g (3)
Paul Bley — p (4)
 
Лог создания рипа
Exact Audio Copy V1.0 beta 1 from 15. November 2010
EAC extraction logfile from 1. July 2012, 21:51
Jimmy Giuffre / IAI Festival
Used drive : TSSTcorpDVD+-RW TS-L532B Adapter: 1 ID: 0
Read mode : Secure
Utilize accurate stream : Yes
Defeat audio cache : Yes
Make use of C2 pointers : No
Read offset correction : 704
Overread into Lead-In and Lead-Out : No
Fill up missing offset samples with silence : Yes
Delete leading and trailing silent blocks : No
Null samples used in CRC calculations : Yes
Used interface : Native Win32 interface for Win NT & 2000
Used output format : Internal WAV Routines
Sample format : 44.100 Hz; 16 Bit; Stereo
TOC of the extracted CD
Track | Start | Length | Start sector | End sector
---------------------------------------------------------
1 | 0:00.33 | 5:12.25 | 33 | 23457
2 | 5:12.58 | 2:34.25 | 23458 | 35032
3 | 7:47.08 | 11:26.00 | 35033 | 86482
4 | 19:13.08 | 11:07.00 | 86483 | 136507
5 | 30:20.08 | 5:44.25 | 136508 | 162332
Range status and errors
Selected range
Filename C:\Documents and Settings\VB\My Documents\BARIN99\38\Jimmy Giuffre - IAI Festival\Jimmy Giuffre - IAI Festival.wav
Peak level 100.0 %
Extraction speed 0.4 X
Range quality 100.0 %
Copy CRC 78B4B120
Copy OK
No errors occurred
AccurateRip summary
Track 1 accurately ripped (confidence 1) [ADEDCEA3]
Track 2 accurately ripped (confidence 1) [F851DAB4]
Track 3 cannot be verified as accurate (confidence 1) [7E6EA915], AccurateRip returned [7D0D3F79]
Track 4 accurately ripped (confidence 1) [97A3D29E]
Track 5 accurately ripped (confidence 1) [D71C94B8]
4 track(s) accurately ripped
1 track(s) could not be verified as accurate
Some tracks could not be verified as accurate
End of status report
 
Содержание индексной карты (.CUE)
REM GENRE "Contemporary Jazz"
REM DATE 1978
REM DISCID 36087405
REM COMMENT "ExactAudioCopy v1.0b1"
PERFORMER "Jimmy Giuffre"
TITLE "IAI Festival"
FILE "Jimmy Giuffre - IAI Festival.wav" WAVE
TRACK 01 AUDIO
TITLE "Blues In The Closet"
PERFORMER "Jimmy Giuffre"
INDEX 00 00:00:00
INDEX 01 00:00:33
TRACK 02 AUDIO
TITLE "The Sad Time"
PERFORMER "Jimmy Giuffre"
INDEX 01 05:12:58
TRACK 03 AUDIO
TITLE "Spanish Flames"
PERFORMER "Jimmy Giuffre"
INDEX 01 07:47:08
TRACK 04 AUDIO
TITLE "Enter, Ivory"
PERFORMER "Jimmy Giuffre"
INDEX 01 19:13:08
TRACK 05 AUDIO
TITLE "From Then To Then"
PERFORMER "Jimmy Giuffre"
INDEX 01 30:20:08
Any questions -> support@pro-jazz.com. По всем вопросам пишите -> support@pro-jazz.com
02:41
225
Нет комментариев. Ваш будет первым!