Вы используете незарегистрированную версию компонента "Вкладки"!

Поиск

(Avant-Garde Jazz, Free Improvisation) ICP (Instant Composers Pool) Orchestra - Oh, My Dog! - 2001, FLAC (tracks+.cue), lossless

(Avant-Garde Jazz, Free Improvisation) ICP (Instant Composers Pool) Orchestra - Oh, My Dog! - 2001, FLAC (tracks+.cue), lossless
Треклист:
•ICP (Instant Composers Pool) Orchestra - Oh, My Dog!•
Жанр: Avant-Garde Jazz, Free Improvisation
Страна-производитель диска: Holland
Год издания: 2001
Издатель (лейбл): ICP
Номер по каталогу: 040
Аудиокодек: FLAC (*.flac)
Тип рипа: tracks+.cue
Битрейт аудио: lossless
Продолжительность: 01:01:23
Источник (релизер): d'Avignon
Наличие сканов в содержимом раздачи: да
Треклист:
01.Wrie down Exactly {04:12}
02.A Close Encounter with Charles's Country Band {05:02}
03.Precise Dimensions and Weight {05:15}
04.A la Russe {02:15}
05.Travel Agent {08:59}
06.Ham on Air {02:58}
07.Hand and checked Luggage {03:24}
08.Oh my Deer! {03:02}
09.Wild Turkey {03:20}
10.Chickadee {01:09}
11.Sparkling {02:43}
12.Oh my Dog! {03:33}
13.Happy dreams {15:26}
 
Лог создания рипа
Exact Audio Copy V1.0 beta 3 from 29. August 2011
EAC extraction logfile from 28. November 2012, 2:48
ICP Orchestra / Oh, My Dog
Used drive : TSSTcorpCDDVDW SH-216AB Adapter: 1 ID: 0
Read mode : Secure
Utilize accurate stream : Yes
Defeat audio cache : Yes
Make use of C2 pointers : No
Read offset correction : 6
Overread into Lead-In and Lead-Out : No
Fill up missing offset samples with silence : Yes
Delete leading and trailing silent blocks : No
Null samples used in CRC calculations : Yes
Used interface : Native Win32 interface for Win NT & 2000
Gap handling : Appended to previous track
Used output format : User Defined Encoder
Selected bitrate : 768 kBit/s
Quality : High
Add ID3 tag : No
Command line compressor : C:\Program Files (x86)\Exact Audio Copy\FLAC\FLAC.EXE
Additional command line options : -6 -V -T "ARTIST=%artist%" -T "TITLE=%title%" -T "ALBUM=%albumtitle%" -T "DATE=%year%" -T "TRACKNUMBER=%tracknr%" -T "GENRE=%genre%" -T "COMMENT=%comment%" -T "BAND=%albuminterpret%" -T "ALBUMARTIST=%albuminterpret%" -T "COMPOSER=%composer%" %haslyrics%--tag-from-file=LYRICS="%lyricsfile%"%haslyrics% -T "DISCNUMBER=%cdnumber%" -T "TOTALDISCS=%totalcds%" -T "TOTALTRACKS=%numtracks%" %hascover%--picture="%coverfile%"%hascover% %source% -o %dest%
TOC of the extracted CD
Track | Start | Length | Start sector | End sector
---------------------------------------------------------
1 | 0:00.00 | 4:12.68 | 0 | 18967
2 | 4:12.68 | 5:02.25 | 18968 | 41642
3 | 9:15.18 | 5:15.49 | 41643 | 65316
4 | 14:30.67 | 2:15.38 | 65317 | 75479
5 | 16:46.30 | 8:59.41 | 75480 | 115945
6 | 25:45.71 | 2:58.24 | 115946 | 129319
7 | 28:44.20 | 3:24.08 | 129320 | 144627
8 | 32:08.28 | 3:02.12 | 144628 | 158289
9 | 35:10.40 | 3:20.44 | 158290 | 173333
10 | 38:31.09 | 1:09.67 | 173334 | 178575
11 | 39:41.01 | 2:43.56 | 178576 | 190856
12 | 42:24.57 | 3:33.14 | 190857 | 206845
13 | 45:57.71 | 15:26.01 | 206846 | 276296
Track 1
Filename C:\Users\astarte\03. POST\ICP - Oh, My Dog\01 Wrie down Exactly.wav
Pre-gap length 0:00:02.00
Peak level 100.0 %
Extraction speed 4.6 X
Track quality 100.0 %
Copy CRC 7F9B425D
Accurately ripped (confidence 2) [DDE5D3F9] (AR v1)
Copy OK
Track 2
Filename C:\Users\astarte\03. POST\ICP - Oh, My Dog\02 A Close Encounter with Charles's Country Band.wav
Pre-gap length 0:00:04.00
Peak level 100.0 %
Extraction speed 5.3 X
Track quality 100.0 %
Copy CRC DCC5F102
Accurately ripped (confidence 2) [DBE6A123] (AR v1)
Copy OK
Track 3
Filename C:\Users\astarte\03. POST\ICP - Oh, My Dog\03 Precise Dimensions and Weight.wav
Pre-gap length 0:00:04.00
Peak level 100.0 %
Extraction speed 5.8 X
Track quality 100.0 %
Copy CRC 87D94967
Accurately ripped (confidence 2) [5067A1F6] (AR v1)
Copy OK
Track 4
Filename C:\Users\astarte\03. POST\ICP - Oh, My Dog\04 A la Russe.wav
Pre-gap length 0:00:04.00
Peak level 26.3 %
Extraction speed 5.4 X
Track quality 100.0 %
Copy CRC 7F60CA94
Accurately ripped (confidence 2) [BE3E5CE1] (AR v1)
Copy OK
Track 5
Filename C:\Users\astarte\03. POST\ICP - Oh, My Dog\05 Travel Agent.wav
Pre-gap length 0:00:04.00
Peak level 100.0 %
Extraction speed 7.0 X
Track quality 100.0 %
Copy CRC DD26DEC7
Accurately ripped (confidence 2) [1B6A13E3] (AR v1)
Copy OK
Track 6
Filename C:\Users\astarte\03. POST\ICP - Oh, My Dog\06 Ham on Air.wav
Pre-gap length 0:00:04.00
Peak level 100.0 %
Extraction speed 6.6 X
Track quality 100.0 %
Copy CRC 9AEDE76D
Accurately ripped (confidence 2) [8AD8C4D2] (AR v1)
Copy OK
Track 7
Filename C:\Users\astarte\03. POST\ICP - Oh, My Dog\07 Hand and checked Luggage.wav
Pre-gap length 0:00:05.00
Peak level 100.0 %
Extraction speed 7.0 X
Track quality 100.0 %
Copy CRC 1E639DBD
Accurately ripped (confidence 2) [4F20F625] (AR v1)
Copy OK
Track 8
Filename C:\Users\astarte\03. POST\ICP - Oh, My Dog\08 Oh my Deer!.wav
Pre-gap length 0:00:05.00
Peak level 98.8 %
Extraction speed 7.0 X
Track quality 100.0 %
Copy CRC 39EAE2C3
Accurately ripped (confidence 2) [DDD78AEC] (AR v1)
Copy OK
Track 9
Filename C:\Users\astarte\03. POST\ICP - Oh, My Dog\09 Wild Turkey.wav
Peak level 98.8 %
Extraction speed 7.4 X
Track quality 100.0 %
Copy CRC 50C16A24
Accurately ripped (confidence 2) [668FF432] (AR v1)
Copy OK
Track 10
Filename C:\Users\astarte\03. POST\ICP - Oh, My Dog\10 Chickadee.wav
Peak level 98.8 %
Extraction speed 5.8 X
Track quality 100.0 %
Copy CRC 50A2DD39
Accurately ripped (confidence 2) [CE99A99E] (AR v1)
Copy OK
Track 11
Filename C:\Users\astarte\03. POST\ICP - Oh, My Dog\11 Sparkling.wav
Peak level 98.8 %
Extraction speed 7.4 X
Track quality 100.0 %
Copy CRC 6C41D168
Accurately ripped (confidence 2) [58782F14] (AR v1)
Copy OK
Track 12
Filename C:\Users\astarte\03. POST\ICP - Oh, My Dog\12 Oh my Dog!.wav
Peak level 98.8 %
Extraction speed 7.9 X
Track quality 100.0 %
Copy CRC BF4D9CC9
Accurately ripped (confidence 2) [9EA87076] (AR v1)
Copy OK
Track 13
Filename C:\Users\astarte\03. POST\ICP - Oh, My Dog\13 Happy dreams.wav
Pre-gap length 0:00:06.00
Peak level 98.8 %
Extraction speed 9.6 X
Track quality 100.0 %
Copy CRC 55C57AEB
Accurately ripped (confidence 2) [D3DDDDD3] (AR v1)
Copy OK
All tracks accurately ripped
No errors occurred
End of status report
==== Log checksum 2F6B37D425091DDA7A75E4269C987478D9687B1DDFC28F04F7066D37BC44F654 ====
------------------------------------------------------------
Exact Audio Copy V1.0 beta 3 from 29. August 2011
EAC extraction logfile from 28. November 2012, 2:48
ICP Orchestra / Oh, My Dog
Used drive : TSSTcorpCDDVDW SH-216AB Adapter: 1 ID: 0
Read mode : Secure
Utilize accurate stream : Yes
Defeat audio cache : Yes
Make use of C2 pointers : No
Read offset correction : 6
Overread into Lead-In and Lead-Out : No
Fill up missing offset samples with silence : Yes
Delete leading and trailing silent blocks : No
Null samples used in CRC calculations : Yes
Used interface : Native Win32 interface for Win NT & 2000
Gap handling : Appended to previous track
Used output format : User Defined Encoder
Selected bitrate : 768 kBit/s
Quality : High
Add ID3 tag : No
Command line compressor : C:\Program Files (x86)\Exact Audio Copy\FLAC\FLAC.EXE
Additional command line options : -6 -V -T "ARTIST=%artist%" -T "TITLE=%title%" -T "ALBUM=%albumtitle%" -T "DATE=%year%" -T "TRACKNUMBER=%tracknr%" -T "GENRE=%genre%" -T "COMMENT=%comment%" -T "BAND=%albuminterpret%" -T "ALBUMARTIST=%albuminterpret%" -T "COMPOSER=%composer%" %haslyrics%--tag-from-file=LYRICS="%lyricsfile%"%haslyrics% -T "DISCNUMBER=%cdnumber%" -T "TOTALDISCS=%totalcds%" -T "TOTALTRACKS=%numtracks%" %hascover%--picture="%coverfile%"%hascover% %source% -o %dest%
TOC of the extracted CD
Track | Start | Length | Start sector | End sector
---------------------------------------------------------
1 | 0:00.00 | 4:12.68 | 0 | 18967
2 | 4:12.68 | 5:02.25 | 18968 | 41642
3 | 9:15.18 | 5:15.49 | 41643 | 65316
4 | 14:30.67 | 2:15.38 | 65317 | 75479
5 | 16:46.30 | 8:59.41 | 75480 | 115945
6 | 25:45.71 | 2:58.24 | 115946 | 129319
7 | 28:44.20 | 3:24.08 | 129320 | 144627
8 | 32:08.28 | 3:02.12 | 144628 | 158289
9 | 35:10.40 | 3:20.44 | 158290 | 173333
10 | 38:31.09 | 1:09.67 | 173334 | 178575
11 | 39:41.01 | 2:43.56 | 178576 | 190856
12 | 42:24.57 | 3:33.14 | 190857 | 206845
13 | 45:57.71 | 15:26.01 | 206846 | 276296
Track 1
Filename C:\Users\astarte\03. POST\ICP - Oh, My Dog\01 Wrie down Exactly.wav
Pre-gap length 0:00:02.00
Peak level 100.0 %
Extraction speed 4.6 X
Track quality 100.0 %
Copy CRC 7F9B425D
Accurately ripped (confidence 2) [DDE5D3F9] (AR v1)
Copy OK
Track 2
Filename C:\Users\astarte\03. POST\ICP - Oh, My Dog\02 A Close Encounter with Charles's Country Band.wav
Pre-gap length 0:00:04.00
Peak level 100.0 %
Extraction speed 5.3 X
Track quality 100.0 %
Copy CRC DCC5F102
Accurately ripped (confidence 2) [DBE6A123] (AR v1)
Copy OK
Track 3
Filename C:\Users\astarte\03. POST\ICP - Oh, My Dog\03 Precise Dimensions and Weight.wav
Pre-gap length 0:00:04.00
Peak level 100.0 %
Extraction speed 5.8 X
Track quality 100.0 %
Copy CRC 87D94967
Accurately ripped (confidence 2) [5067A1F6] (AR v1)
Copy OK
Track 4
Filename C:\Users\astarte\03. POST\ICP - Oh, My Dog\04 A la Russe.wav
Pre-gap length 0:00:04.00
Peak level 26.3 %
Extraction speed 5.4 X
Track quality 100.0 %
Copy CRC 7F60CA94
Accurately ripped (confidence 2) [BE3E5CE1] (AR v1)
Copy OK
Track 5
Filename C:\Users\astarte\03. POST\ICP - Oh, My Dog\05 Travel Agent.wav
Pre-gap length 0:00:04.00
Peak level 100.0 %
Extraction speed 7.0 X
Track quality 100.0 %
Copy CRC DD26DEC7
Accurately ripped (confidence 2) [1B6A13E3] (AR v1)
Copy OK
Track 6
Filename C:\Users\astarte\03. POST\ICP - Oh, My Dog\06 Ham on Air.wav
Pre-gap length 0:00:04.00
Peak level 100.0 %
Extraction speed 6.6 X
Track quality 100.0 %
Copy CRC 9AEDE76D
Accurately ripped (confidence 2) [8AD8C4D2] (AR v1)
Copy OK
Track 7
Filename C:\Users\astarte\03. POST\ICP - Oh, My Dog\07 Hand and checked Luggage.wav
Pre-gap length 0:00:05.00
Peak level 100.0 %
Extraction speed 7.0 X
Track quality 100.0 %
Copy CRC 1E639DBD
Accurately ripped (confidence 2) [4F20F625] (AR v1)
Copy OK
Track 8
Filename C:\Users\astarte\03. POST\ICP - Oh, My Dog\08 Oh my Deer!.wav
Pre-gap length 0:00:05.00
Peak level 98.8 %
Extraction speed 7.0 X
Track quality 100.0 %
Copy CRC 39EAE2C3
Accurately ripped (confidence 2) [DDD78AEC] (AR v1)
Copy OK
Track 9
Filename C:\Users\astarte\03. POST\ICP - Oh, My Dog\09 Wild Turkey.wav
Peak level 98.8 %
Extraction speed 7.4 X
Track quality 100.0 %
Copy CRC 50C16A24
Accurately ripped (confidence 2) [668FF432] (AR v1)
Copy OK
Track 10
Filename C:\Users\astarte\03. POST\ICP - Oh, My Dog\10 Chickadee.wav
Peak level 98.8 %
Extraction speed 5.8 X
Track quality 100.0 %
Copy CRC 50A2DD39
Accurately ripped (confidence 2) [CE99A99E] (AR v1)
Copy OK
Track 11
Filename C:\Users\astarte\03. POST\ICP - Oh, My Dog\11 Sparkling.wav
Peak level 98.8 %
Extraction speed 7.4 X
Track quality 100.0 %
Copy CRC 6C41D168
Accurately ripped (confidence 2) [58782F14] (AR v1)
Copy OK
Track 12
Filename C:\Users\astarte\03. POST\ICP - Oh, My Dog\12 Oh my Dog!.wav
Peak level 98.8 %
Extraction speed 7.9 X
Track quality 100.0 %
Copy CRC BF4D9CC9
Accurately ripped (confidence 2) [9EA87076] (AR v1)
Copy OK
Track 13
Filename C:\Users\astarte\03. POST\ICP - Oh, My Dog\13 Happy dreams.wav
Pre-gap length 0:00:06.00
Peak level 98.8 %
Extraction speed 9.6 X
Track quality 100.0 %
Copy CRC 55C57AEB
Accurately ripped (confidence 2) [D3DDDDD3] (AR v1)
Copy OK
All tracks accurately ripped
No errors occurred
End of status report
==== Log checksum 2F6B37D425091DDA7A75E4269C987478D9687B1DDFC28F04F7066D37BC44F654 ====
 
Содержание индексной карты (.CUE)
REM GENRE Jazz
REM DATE 2001
REM DISCID AD0E630D
REM COMMENT "ExactAudioCopy v1.0b3"
PERFORMER "ICP Orchestra"
TITLE "Oh, My Dog"
FILE "01 Wrie down Exactly.wav" WAVE
TRACK 01 AUDIO
TITLE "Wrie down Exactly"
PERFORMER "ICP Orchestra"
ISRC NLB980140001
INDEX 01 00:00:00
TRACK 02 AUDIO
TITLE "A Close Encounter with Charles's Country Band"
PERFORMER "ICP Orchestra"
ISRC NLB980140002
INDEX 00 04:08:68
FILE "02 A Close Encounter with Charles's Country Band.wav" WAVE
INDEX 01 00:00:00
TRACK 03 AUDIO
TITLE "Precise Dimensions and Weight"
PERFORMER "ICP Orchestra"
ISRC NLB980140003
INDEX 00 04:58:25
FILE "03 Precise Dimensions and Weight.wav" WAVE
INDEX 01 00:00:00
TRACK 04 AUDIO
TITLE "A la Russe"
PERFORMER "ICP Orchestra"
ISRC NLB980140004
INDEX 00 05:11:49
FILE "04 A la Russe.wav" WAVE
INDEX 01 00:00:00
TRACK 05 AUDIO
TITLE "Travel Agent"
PERFORMER "ICP Orchestra"
ISRC NLB980140005
INDEX 00 02:11:38
FILE "05 Travel Agent.wav" WAVE
INDEX 01 00:00:00
TRACK 06 AUDIO
TITLE "Ham on Air"
PERFORMER "ICP Orchestra"
ISRC NLB980140006
INDEX 00 08:55:41
FILE "06 Ham on Air.wav" WAVE
INDEX 01 00:00:00
TRACK 07 AUDIO
TITLE "Hand and checked Luggage"
PERFORMER "ICP Orchestra"
ISRC NLB980140007
INDEX 00 02:53:24
FILE "07 Hand and checked Luggage.wav" WAVE
INDEX 01 00:00:00
TRACK 08 AUDIO
TITLE "Oh my Deer!"
PERFORMER "ICP Orchestra"
ISRC NLB980140008
INDEX 00 03:19:08
FILE "08 Oh my Deer!.wav" WAVE
INDEX 01 00:00:00
FILE "09 Wild Turkey.wav" WAVE
TRACK 09 AUDIO
TITLE "Wild Turkey"
PERFORMER "ICP Orchestra"
ISRC NLB980140009
INDEX 01 00:00:00
FILE "10 Chickadee.wav" WAVE
TRACK 10 AUDIO
TITLE "Chickadee"
PERFORMER "Out Back"
ISRC NLB980140010
INDEX 01 00:00:00
FILE "11 Sparkling.wav" WAVE
TRACK 11 AUDIO
TITLE "Sparkling"
PERFORMER "ICP Orchestra"
ISRC NLB980140011
INDEX 01 00:00:00
FILE "12 Oh my Dog!.wav" WAVE
TRACK 12 AUDIO
TITLE "Oh my Dog!"
PERFORMER "ICP Orchestra"
ISRC NLB980140012
INDEX 01 00:00:00
TRACK 13 AUDIO
TITLE "Happy dreams"
PERFORMER "ICP Orchestra"
ISRC NLB980140013
INDEX 00 03:27:14
FILE "13 Happy dreams.wav" WAVE
INDEX 01 00:00:00
Any questions -> support@pro-jazz.com. По всем вопросам пишите -> support@pro-jazz.com
05:50
133
Нет комментариев. Ваш будет первым!