Поиск

(Avant-Garde Jazz, Free Improvisation, Hardcore) [CD] Zu & Eugene Chadbourne (Roy Paci, Massimo Pupillo, Jacopo Battaglia) - The Zu Side Of The Chadbourne - 2000, FLAC (tracks+.cue), lossless

(Avant-Garde Jazz, Free Improvisation, Hardcore) [CD] Zu & Eugene Chadbourne (Roy Paci, Massimo Pupillo, Jacopo Battaglia) - The Zu Side Of The Chadbourne - 2000, FLAC (tracks+.cue), lossless
Треклист:
Zu & Eugene Chadbourne / The Zu Side Of The Chadbourne
Жанр: Avant-Garde Jazz, Free Improvisation, Hardcore
Носитель: CD
Страна-производитель диска (релиза): Italy
Год издания: 2000
Издатель (лейбл): Felmay
Номер по каталогу: Fy 7018
Аудиокодек: FLAC (*.flac)
Тип рипа: tracks+.cue
Битрейт аудио: lossless
Продолжительность: 51:24
Источник (релизер): cd
Наличие сканов в содержимом раздачи: нет
Треклист:
1. Cosmos (Music By [Improvisations] – John Coltrane) 5:17
2. Chadbourne In The Sky With Diamonds 7:08
3. Somewhere Over The Chadbourne 1:38
4. Porgy And Chadbourne 6:47
5. Holiday In Chadbournia 1:10
6. Ascenseur Pour Le Chadbourne 5:00
7. Inna Gadda Na Chadbourne 7:47
8. 'O Chadbourne Mio! 1:49
9. House Of The Rising Chadbourne 4:05
10. Stairway To Chadbourne 1:53
11. For Those About To Chadbourne (We Salute You) 2:21
12. Everybody Needs A Chadbourne (To Love) 1:13
13. Spirits (Music By [Improvisations] – Albert Ayler) 5:17
 
Лог создания рипа
Exact Audio Copy V1.0 beta 3 from 29. August 2011
EAC extraction logfile from 24. September 2016, 11:39
Zu & Eugene Chadbourne / The Zu Side Of The Chadbourne
Used drive : ASUS DRW-24F1ST a Adapter: 0 ID: 0
Read mode : Secure
Utilize accurate stream : Yes
Defeat audio cache : Yes
Make use of C2 pointers : No
Read offset correction : 6
Overread into Lead-In and Lead-Out : No
Fill up missing offset samples with silence : Yes
Delete leading and trailing silent blocks : No
Null samples used in CRC calculations : Yes
Used interface : Native Win32 interface for Win NT & 2000
Gap handling : Appended to previous track
Used output format : User Defined Encoder
Selected bitrate : 320 kBit/s
Quality : High
Add ID3 tag : No
Command line compressor : D:\Programs\Exact Audio Copy\Flac\flac.exe
Additional command line options : -V -8 -T "Genre=%genre%" -T "Artist=%artist%" -T "Title=%title%" -T "Album=%albumtitle%" -T "Date=%year%" -T "Tracknumber=%tracknr%" -T "Comment=%comment%" %source%
TOC of the extracted CD
Track | Start | Length | Start sector | End sector
---------------------------------------------------------
1 | 0:00.00 | 5:16.53 | 0 | 23752
2 | 5:16.53 | 7:07.48 | 23753 | 55825
3 | 12:24.26 | 1:37.74 | 55826 | 63174
4 | 14:02.25 | 6:47.12 | 63175 | 93711
5 | 20:49.37 | 1:09.40 | 93712 | 98926
6 | 21:59.02 | 5:00.32 | 98927 | 121458
7 | 26:59.34 | 7:46.58 | 121459 | 156466
8 | 34:46.17 | 1:49.18 | 156467 | 164659
9 | 36:35.35 | 4:05.15 | 164660 | 183049
10 | 40:40.50 | 1:52.74 | 183050 | 191523
11 | 42:33.49 | 2:20.44 | 191524 | 202067
12 | 44:54.18 | 1:12.73 | 202068 | 207540
13 | 46:07.16 | 5:16.70 | 207541 | 231310
Track 1
Filename D:\EAC\01 Cosmos.wav
Pre-gap length 0:00:02.00
Peak level 100.0 %
Extraction speed 2.4 X
Track quality 99.9 %
Test CRC F699D87F
Copy CRC F699D87F
Accurately ripped (confidence 3) [53B41238] (AR v1)
Copy OK
Track 2
Filename D:\EAC\02 Chadbourne In The Sky With Diamonds.wav
Pre-gap length 0:00:02.00
Peak level 100.0 %
Extraction speed 3.2 X
Track quality 100.0 %
Test CRC 11C33098
Copy CRC 11C33098
Accurately ripped (confidence 3) [5628B7F7] (AR v1)
Copy OK
Track 3
Filename D:\EAC\03 Somewhere Over The Chadbourne.wav
Pre-gap length 0:00:02.00
Peak level 100.0 %
Extraction speed 2.7 X
Track quality 100.0 %
Test CRC BEBCC22A
Copy CRC BEBCC22A
Accurately ripped (confidence 3) [270ED360] (AR v1)
Copy OK
Track 4
Filename D:\EAC\04 Porgy And Chadbourne.wav
Pre-gap length 0:00:02.00
Peak level 100.0 %
Extraction speed 3.7 X
Track quality 100.0 %
Test CRC 2715E261
Copy CRC 2715E261
Accurately ripped (confidence 3) [A1B6D2EB] (AR v1)
Copy OK
Track 5
Filename D:\EAC\05 Holiday In Chadbournia.wav
Pre-gap length 0:00:02.00
Peak level 100.0 %
Extraction speed 2.7 X
Track quality 100.0 %
Test CRC 41F4C757
Copy CRC 41F4C757
Accurately ripped (confidence 3) [5234EBBF] (AR v1)
Copy OK
Track 6
Filename D:\EAC\06 Ascenseur pour le Chadbourne.wav
Pre-gap length 0:00:02.00
Peak level 100.0 %
Extraction speed 3.5 X
Track quality 99.9 %
Test CRC 1F8F7CB1
Copy CRC 1F8F7CB1
Accurately ripped (confidence 3) [CC9EC253] (AR v1)
Copy OK
Track 7
Filename D:\EAC\07 Inna Gadda Na Chadbourne.wav
Pre-gap length 0:00:02.00
Peak level 98.5 %
Extraction speed 4.1 X
Track quality 99.9 %
Test CRC 7AC79B52
Copy CRC 7AC79B52
Accurately ripped (confidence 3) [321FE7AE] (AR v1)
Copy OK
Track 8
Filename D:\EAC\08 O Chadbourne Mio.wav
Pre-gap length 0:00:02.00
Peak level 100.0 %
Extraction speed 2.9 X
Track quality 99.9 %
Test CRC 934F2EE5
Copy CRC 934F2EE5
Accurately ripped (confidence 3) [E0DB5403] (AR v1)
Copy OK
Track 9
Filename D:\EAC\09 House Of The Rising Chadbourne.wav
Pre-gap length 0:00:02.00
Peak level 100.0 %
Extraction speed 4.4 X
Track quality 100.0 %
Test CRC 8BFD2BEB
Copy CRC 8BFD2BEB
Accurately ripped (confidence 3) [0EC37A80] (AR v1)
Copy OK
Track 10
Filename D:\EAC\10 Stairway To Chadbourne.wav
Pre-gap length 0:00:02.00
Peak level 100.0 %
Extraction speed 3.9 X
Track quality 100.0 %
Test CRC A74681E4
Copy CRC A74681E4
Accurately ripped (confidence 3) [A304047A] (AR v1)
Copy OK
Track 11
Filename D:\EAC\11 For Those About To Chadbourne.wav
Pre-gap length 0:00:02.00
Peak level 100.0 %
Extraction speed 4.1 X
Track quality 100.0 %
Test CRC E0B2E126
Copy CRC E0B2E126
Accurately ripped (confidence 3) [EEE60D1E] (AR v1)
Copy OK
Track 12
Filename D:\EAC\12 Everybody Needs A Chadbourne.wav
Pre-gap length 0:00:02.00
Peak level 100.0 %
Extraction speed 3.5 X
Track quality 100.0 %
Test CRC 18A038CE
Copy CRC 18A038CE
Accurately ripped (confidence 3) [91D00A4F] (AR v1)
Copy OK
Track 13
Filename D:\EAC\13 Spirits.wav
Pre-gap length 0:00:02.00
Peak level 100.0 %
Extraction speed 4.9 X
Track quality 100.0 %
Test CRC 8660C27B
Copy CRC 8660C27B
Accurately ripped (confidence 3) [A3688AEB] (AR v1)
Copy OK
All tracks accurately ripped
No errors occurred
End of status report
==== Log checksum 45FC7EEB44407114F4ABE3021001A530EDFD8A5B12F283EA7DABED6EA870BF2C ====
 
Содержание индексной карты (.CUE)
REM GENRE Jazz
REM DATE 2000
REM DISCID BA0C0C0D
REM COMMENT "ExactAudioCopy v1.0b3"
PERFORMER "Zu & Eugene Chadbourne"
TITLE "The Zu Side Of The Chadbourne"
FILE "01 Cosmos.wav" WAVE
TRACK 01 AUDIO
TITLE "Cosmos"
PERFORMER "Zu & Eugene Chadbourne"
ISRC 000000000000
INDEX 01 00:00:00
TRACK 02 AUDIO
TITLE "Chadbourne In The Sky With Diamonds"
PERFORMER "Zu & Eugene Chadbourne"
ISRC 000000000000
INDEX 00 05:14:53
FILE "02 Chadbourne In The Sky With Diamonds.wav" WAVE
INDEX 01 00:00:00
TRACK 03 AUDIO
TITLE "Somewhere Over The Chadbourne"
PERFORMER "Zu & Eugene Chadbourne"
ISRC 000000000000
INDEX 00 07:05:48
FILE "03 Somewhere Over The Chadbourne.wav" WAVE
INDEX 01 00:00:00
TRACK 04 AUDIO
TITLE "Porgy And Chadbourne"
PERFORMER "Zu & Eugene Chadbourne"
ISRC 000000000000
INDEX 00 01:35:74
FILE "04 Porgy And Chadbourne.wav" WAVE
INDEX 01 00:00:00
TRACK 05 AUDIO
TITLE "Holiday In Chadbournia"
PERFORMER "Zu & Eugene Chadbourne"
ISRC 000000000000
INDEX 00 06:45:12
FILE "05 Holiday In Chadbournia.wav" WAVE
INDEX 01 00:00:00
TRACK 06 AUDIO
TITLE "Ascenseur pour le Chadbourne"
PERFORMER "Zu & Eugene Chadbourne"
ISRC 000000000000
INDEX 00 01:07:40
FILE "06 Ascenseur pour le Chadbourne.wav" WAVE
INDEX 01 00:00:00
TRACK 07 AUDIO
TITLE "Inna Gadda Na Chadbourne"
PERFORMER "Zu & Eugene Chadbourne"
ISRC 000000000000
INDEX 00 04:58:32
FILE "07 Inna Gadda Na Chadbourne.wav" WAVE
INDEX 01 00:00:00
TRACK 08 AUDIO
TITLE "O Chadbourne Mio"
PERFORMER "Zu & Eugene Chadbourne"
ISRC 000000000000
INDEX 00 07:44:58
FILE "08 O Chadbourne Mio.wav" WAVE
INDEX 01 00:00:00
TRACK 09 AUDIO
TITLE "House Of The Rising Chadbourne"
PERFORMER "Zu & Eugene Chadbourne"
ISRC 000000000000
INDEX 00 01:47:18
FILE "09 House Of The Rising Chadbourne.wav" WAVE
INDEX 01 00:00:00
TRACK 10 AUDIO
TITLE "Stairway To Chadbourne"
PERFORMER "Zu & Eugene Chadbourne"
ISRC 000000000000
INDEX 00 04:03:15
FILE "10 Stairway To Chadbourne.wav" WAVE
INDEX 01 00:00:00
TRACK 11 AUDIO
TITLE "For Those About To Chadbourne"
PERFORMER "Zu & Eugene Chadbourne"
ISRC 000000000000
INDEX 00 01:50:74
FILE "11 For Those About To Chadbourne.wav" WAVE
INDEX 01 00:00:00
TRACK 12 AUDIO
TITLE "Everybody Needs A Chadbourne"
PERFORMER "Zu & Eugene Chadbourne"
ISRC 000000000000
INDEX 00 02:18:44
FILE "12 Everybody Needs A Chadbourne.wav" WAVE
INDEX 01 00:00:00
TRACK 13 AUDIO
TITLE "Spirits"
PERFORMER "Zu & Eugene Chadbourne"
ISRC 000000000000
INDEX 00 01:10:73
FILE "13 Spirits.wav" WAVE
INDEX 01 00:00:00
Доп. информация: This recording was made during the "Resurrection Festival" for the Doktor Chadbourne Jubilaeum.
Mixed in Rome, S. Pietro Studio, sometimes in 1999.
Recorded 29/30 March '99 in Rome, S. Pietro Studio.
 
Состав
Bass – Massimo Pupillo
Drums – Jacopo Battaglia
Guitar – Doktor Chadbourne
Music By [Improvisations] – Eugene Chadbourne, Zu
Trumpet – Roy Paci
20:48
281
Нет комментариев. Ваш будет первым!