Вы используете незарегистрированную версию компонента "Вкладки"!

Поиск

(Avant-Garde Jazz, Free Improvisation, FMR) [CD] Paul Dunmall, Philip Gibbs, Trevor Taylor - New Atmospheres - 2012, FLAC (tracks+.cue), lossless

(Avant-Garde Jazz, Free Improvisation, FMR) [CD] Paul Dunmall, Philip Gibbs, Trevor Taylor - New Atmospheres - 2012, FLAC (tracks+.cue), lossless
Треклист:
Paul Dunmall, Philip Gibbs, Trevor Taylor / New Atmospheres
Жанр: Avant-Garde Jazz, Free Improvisation, FMR
Носитель: CD
Страна-производитель диска: UK
Год издания: 2012
Издатель (лейбл): FMR Records
Номер по каталогу: FMRCD345-1112
Страна: UK
Аудиокодек: FLAC (*.flac)
Тип рипа: tracks+.cue
Битрейт аудио: lossless
Продолжительность: 53:32
Источник (релизер): свой фирменный диск
Наличие сканов в содержимом раздачи:
Треклист:
1. Atmos 1 14:28
2. Atmos 2 18:09
3. Atmos 3 10:25
4. Atmos 3 (Alternate Version) 10:24
 
Лог создания рипа
Exact Audio Copy V1.0 beta 3 from 29. August 2011
EAC extraction logfile from 29. May 2014, 0:02
Paul Dunmall, Philip Gibbs, Trevor Taylor / New Atmospheres
Used drive : PIONEER DVD-RW DVR-115D Adapter: 0 ID: 0
Read mode : Secure
Utilize accurate stream : Yes
Defeat audio cache : Yes
Make use of C2 pointers : No
Read offset correction : 48
Overread into Lead-In and Lead-Out : No
Fill up missing offset samples with silence : Yes
Delete leading and trailing silent blocks : No
Null samples used in CRC calculations : Yes
Used interface : Installed external ASPI interface
Gap handling : Appended to previous track
Used output format : User Defined Encoder
Selected bitrate : 896 kBit/s
Quality : High
Add ID3 tag : No
Command line compressor : C:\Program Files\Exact Audio Copy\FLAC\FLAC.EXE
Additional command line options : -6 -V -T "ARTIST=%artist%" -T "TITLE=%title%" -T "ALBUM=%albumtitle%" -T "DATE=%year%" -T "TRACKNUMBER=%tracknr%" -T "GENRE=%genre%" -T "COMMENT=%comment%" -T "BAND=%albuminterpret%" -T "COMPOSER=%composer%" %haslyrics%--tag-from-file=LYRICS="%lyricsfile%"%haslyrics% -T "DISCNUMBER=%cdnumber%" -T "TOTALDISCS=%totalcds%" -T "TOTALTRACKS=%numtracks%" %hascover%--picture="%coverfile%"%hascover% %source% -o %dest%
TOC of the extracted CD
Track | Start | Length | Start sector | End sector
---------------------------------------------------------
1 | 0:00.00 | 14:29.60 | 0 | 65234
2 | 14:29.60 | 18:10.71 | 65235 | 147055
3 | 32:40.56 | 10:26.71 | 147056 | 194076
4 | 43:07.52 | 10:24.71 | 194077 | 240947
Track 1
Filename D:\zzz\01 - Atmos 1.wav
Pre-gap length 0:00:02.00
Peak level 100.0 %
Extraction speed 5.6 X
Track quality 100.0 %
Test CRC 05971D90
Copy CRC 05971D90
Track not present in AccurateRip database
Copy OK
Track 2
Filename D:\zzz\02 - Atmos 2.wav
Pre-gap length 0:00:02.00
Peak level 100.0 %
Extraction speed 7.1 X
Track quality 99.9 %
Test CRC 3563FC6C
Copy CRC 3563FC6C
Track not present in AccurateRip database
Copy OK
Track 3
Filename D:\zzz\03 - Atmos 3.wav
Pre-gap length 0:00:02.00
Peak level 100.0 %
Extraction speed 8.2 X
Track quality 100.0 %
Test CRC 783A56DB
Copy CRC 783A56DB
Track not present in AccurateRip database
Copy OK
Track 4
Filename D:\zzz\04 - Atmos 3 (Alternate Version).wav
Pre-gap length 0:00:02.00
Peak level 100.0 %
Extraction speed 8.7 X
Track quality 100.0 %
Test CRC CC5185C4
Copy CRC CC5185C4
Track not present in AccurateRip database
Copy OK
None of the tracks are present in the AccurateRip database
No errors occurred
End of status report
==== Log checksum 10BABE618BE4A000EA9A0A04BF138134734E53EED78F24211D7F674DFB4883F4 ====
 
Содержание индексной карты (.CUE)
REM GENRE "Free Improvisation"
REM DATE 2012
REM DISCID 3C0C8C04
REM COMMENT "ExactAudioCopy v1.0b3"
PERFORMER "Paul Dunmall, Philip Gibbs, Trevor Taylor"
TITLE "New Atmospheres"
FILE "01 - Atmos 1.wav" WAVE
TRACK 01 AUDIO
TITLE "Atmos 1"
PERFORMER "Paul Dunmall, Philip Gibbs, Trevor Taylor"
INDEX 01 00:00:00
TRACK 02 AUDIO
TITLE "Atmos 2"
PERFORMER "Paul Dunmall, Philip Gibbs, Trevor Taylor"
INDEX 00 14:27:60
FILE "02 - Atmos 2.wav" WAVE
INDEX 01 00:00:00
TRACK 03 AUDIO
TITLE "Atmos 3"
PERFORMER "Paul Dunmall, Philip Gibbs, Trevor Taylor"
INDEX 00 18:08:71
FILE "03 - Atmos 3.wav" WAVE
INDEX 01 00:00:00
TRACK 04 AUDIO
TITLE "Atmos 3 (Alternate Version)"
PERFORMER "Paul Dunmall, Philip Gibbs, Trevor Taylor"
INDEX 00 10:24:71
FILE "04 - Atmos 3 (Alternate Version).wav" WAVE
INDEX 01 00:00:00
 
Лог проверки качества
d:\>d:\aucdtect -d/-m0 d:\zzz\*.wav
auCDtect: CD records authenticity detector, version 0.8.2
Copyright (c) 2004 Oleg Berngardt. All rights reserved.
Copyright (c) 2004 Alexander Djourik. All rights reserved.
------------------------------------------------------------
Processing file: [01. Atmos 1.wav]
------------------------------------------------------------
This track looks like CDDA with probability 99%
------------------------------------------------------------
Processing file: [02. Atmos 2.wav]
------------------------------------------------------------
This track looks like CDDA with probability 100%
------------------------------------------------------------
Processing file: [03. Atmos 3.wav]
------------------------------------------------------------
Could not qualify the source of this track.
------------------------------------------------------------
Processing file: [04. Atmos 3 (Alternate Version).wav]
------------------------------------------------------------
This track looks like CDDA with probability 100%
------------------------------------------------------------
Final Conclusion:
------------------------------------------------------------
These tracks looks like CDDA with probability 100%
Доп. информация:
 
Album Info
Recorded at The White House, Essex, 14-11-2012
"Recorded at the white house Essex in late 2012 these three improvisations vary enormously. The first features Paul Dunmall rarely on flute, with electroacoustic guitar and percussion/electronics, whilst the mood moves up a notch when he moves to soprano for the second of these three highly stimulating improvisations." - FMR
 
Состав
Paul Dunmall: flute, soprano saxophone
Trevor Taylor: acoustic & electronic percussion
Philip Gibbs: electro acoustic guitar
По всем вопросам пишите личное сообщение пользователю M0p94ok.
03:47
153
Нет комментариев. Ваш будет первым!