Вы используете незарегистрированную версию компонента "Вкладки"!

Поиск

(Avant-Garde Jazz, Free Improvisation, Discus) [CD] Derek Bailey, Mick Beck, Paul Hession - Meanwhile, Back In Sheffield... - 2005, FLAC (tracks+.cue), lossless

(Avant-Garde Jazz, Free Improvisation, Discus) [CD] Derek Bailey, Mick Beck, Paul Hession - Meanwhile, Back In Sheffield... - 2005, FLAC (tracks+.cue), lossless
Треклист:
Derek Bailey, Mick Beck, Paul Hession / Meanwhile, Back In Sheffield...
Жанр: Avant-Garde Jazz, Free Improvisation, Discus
Носитель: CD
Страна-производитель диска: UK
Год издания: 2005
Издатель (лейбл): Discus Records
Номер по каталогу: Discus 21CD
Страна исполнителя (группы): UK
Аудиокодек: FLAC (*.flac)
Тип рипа: tracks+.cue
Битрейт аудио: lossless
Продолжительность: 53:17
Источник (релизер): свой фирменный диск
Наличие сканов в содержимом раздачи:
Треклист:
1. After The Red Deer 32:49
2. Raining 8:23
3. Buckets 11:48
 
Лог создания рипа
Exact Audio Copy V1.0 beta 3 from 29. August 2011
EAC extraction logfile from 25. August 2014, 19:31
Derek Bailey, Mick Beck, Paul Hession / Meanwhile, Back In Sheffield...
Used drive : PIONEER DVD-RW DVR-115D Adapter: 0 ID: 0
Read mode : Secure
Utilize accurate stream : Yes
Defeat audio cache : Yes
Make use of C2 pointers : No
Read offset correction : 48
Overread into Lead-In and Lead-Out : No
Fill up missing offset samples with silence : Yes
Delete leading and trailing silent blocks : No
Null samples used in CRC calculations : Yes
Used interface : Installed external ASPI interface
Gap handling : Appended to previous track
Used output format : User Defined Encoder
Selected bitrate : 1024 kBit/s
Quality : High
Add ID3 tag : No
Command line compressor : C:\Program Files\Exact Audio Copy\Flac\flac.exe
Additional command line options : -6 -V -T "ARTIST=%artist%" -T "TITLE=%title%" -T "ALBUM=%albumtitle%" -T "DATE=%year%" -T "TRACKNUMBER=%tracknr%" -T "GENRE=%genre%" -T "COMMENT=%comment%" -T "BAND=%albuminterpret%" -T "COMPOSER=%composer%" %haslyrics%--tag-from-file=LYRICS="%lyricsfile%"%haslyrics% -T "DISCNUMBER=%cdnumber%" -T "TOTALDISCS=%totalcds%" -T "TOTALTRACKS=%numtracks%" %hascover%--picture="%coverfile%"%hascover% %source% -o %dest%
TOC of the extracted CD
Track | Start | Length | Start sector | End sector
---------------------------------------------------------
1 | 0:00.00 | 32:57.11 | 0 | 148285
2 | 32:57.11 | 8:31.52 | 148286 | 186662
3 | 41:28.63 | 11:48.20 | 186663 | 239782
Track 1
Filename D:\zzz\01 - After The Red Deer.wav
Pre-gap length 0:00:02.00
Peak level 100.0 %
Extraction speed 6.2 X
Track quality 100.0 %
Test CRC 1AC5C6CB
Copy CRC 1AC5C6CB
Track not present in AccurateRip database
Copy OK
Track 2
Filename D:\zzz\02 - Raining.wav
Pre-gap length 0:00:07.57
Peak level 88.4 %
Extraction speed 7.5 X
Track quality 100.0 %
Test CRC 530EC588
Copy CRC 530EC588
Track not present in AccurateRip database
Copy OK
Track 3
Filename D:\zzz\03 - Buckets.wav
Pre-gap length 0:00:07.57
Peak level 100.0 %
Extraction speed 8.3 X
Track quality 100.0 %
Test CRC F6D3CBD2
Copy CRC F6D3CBD2
Track not present in AccurateRip database
Copy OK
None of the tracks are present in the AccurateRip database
No errors occurred
End of status report
==== Log checksum 3F3BB90415C3CAD80B424D7C9B7E9E702182B78062EE1A87FBE84B058D3854F3 ====
 
Содержание индексной карты (.CUE)
REM GENRE "Free Improvisation"
REM DATE 2005
REM DISCID 2B0C7D03
REM COMMENT "ExactAudioCopy v1.0b3"
PERFORMER "Derek Bailey, Mick Beck, Paul Hession"
TITLE "Meanwhile, Back In Sheffield..."
FILE "01 - After The Red Deer.wav" WAVE
TRACK 01 AUDIO
TITLE "After The Red Deer"
PERFORMER "Derek Bailey, Mick Beck, Paul Hession"
FLAGS DCP
INDEX 01 00:00:00
TRACK 02 AUDIO
TITLE "Raining"
PERFORMER "Derek Bailey, Mick Beck, Paul Hession"
FLAGS DCP
INDEX 00 32:49:29
FILE "02 - Raining.wav" WAVE
INDEX 01 00:00:00
TRACK 03 AUDIO
TITLE "Buckets"
PERFORMER "Derek Bailey, Mick Beck, Paul Hession"
FLAGS DCP
INDEX 00 08:23:70
FILE "03 - Buckets.wav" WAVE
INDEX 01 00:00:00
 
Лог проверки качества
d:\>d:\aucdtect -d/-m0 d:\zzz\*.wav
auCDtect: CD records authenticity detector, version 0.8.2
Copyright (c) 2004 Oleg Berngardt. All rights reserved.
Copyright (c) 2004 Alexander Djourik. All rights reserved.
------------------------------------------------------------
Processing file: [01. After The Red Deer.wav]
------------------------------------------------------------
This track looks like CDDA with probability 100%
------------------------------------------------------------
Processing file: [02. Raining.wav]
------------------------------------------------------------
This track looks like CDDA with probability 100%
------------------------------------------------------------
Processing file: [03. Buckets.wav]
------------------------------------------------------------
This track looks like CDDA with probability 100%
------------------------------------------------------------
Final Conclusion:
------------------------------------------------------------
These tracks looks like CDDA with probability 100%
Доп. информация:
 
Album Info & Review
In August 2004 at the invitation of Mick Beck and Paul Hession, Derek Bailey returned to his home city, Sheffield, for a couple of gigs there and in Leeds. Bailey now lives most of the time in Barcelona, and sometimes likes to get away from the heat of its summer. Sheffield's meteorological response was dramatic - cold, and so much rain that it necessitated buckets under a few drips. Possible onomatopoeic resonances from the openings of tracks two and three can be detected. Fortunately, the Red Deer pub was just round the corner.
The Sheffield gig was recorded live and gratis by Chris Trent, for which many thanks.
It was supported by Sheffield's Other Music.
Studio production was by Ian Stead.
Music by Bailey, Beck, Hession (PRS / MCPS), is taken from Chris Trent's recording with only minor editing. It is in many parts reflective but with some spiky bits.
Good to have Mr Bailey back in town - his first live performance there for more than ten years.
"MEANWHILE, BACK IN SHEFFIELD captures on disc a now-uncommon occurrence: the first live gig in a decade by that British city’s best-known native improviser: guitarist Derek Bailey, now a Barcelona-resident. He’s joined by local Mick Beck on tenor saxophone, whistles and bassoon, and drummer Paul Hession from Leeds. Both men have played individually with Bailey, but never recorded with him in this formation. Recorded live – but with audience applause excised – the barely 53 minute MEANWHILE, BACK IN SHEFFIELD reproduces the concert exactly as it evolved. Bailey’s hyper-distinctive guitar phrasing is such that while Beck sometimes screams and squeals through both horns, and Hession unleashes fierce cross-handed textures, the fretman guides the improvisations. Oh course, whether this happens through tacit musical agreement, the force of Bailey’s personality or the others’ deference to an elder is open to interpretation. Showpiece track is “After The Red Deer”, the nearly-33-minute opening salvo. Beginning with bird-whistle chirps from Beck and understates flams from Hession, it gains its shape from Bailey’s distinctive strums and string swipes. Soon the saxophonist’s sparrow peeps swell to crow-like caws as he tops off the body tube with glottal punctuation and tongue-fluttering. With the drummer limiting himself to nerve beats and wooden concussions, the guitarist’s irregular patterns, scraping pulsation and quaking reverb match Beck’s spacious tone expelling, finally diminishing to trilling obbligatos from the reedist and claw-hammer picking from the guitarist. Asserting himself, Bailey chromatically works his way across his strings and frets, goading Hession to follow suit with snare press rolls, cymbal slaps and drumstick-across-the-metal squeaks. Beck’s response in the improvisation’s penultimate minutes is to bring out his bassoon, showcasing basso quivers, and side-slipping sonority. Diminishing his own contribution to a dewy mist of spiky notes, the guitarist presages the ending with highly rhythmic chording. Both other, shorter instant compositions feature more of the same, with Bailey and Hession sticking to spanked and tapped single note textures. Meanwhile Beck consolidates his sound, at one point spraying a wailing melody with one horn as he simultaneously peeps penny-whistle decoration. As a maximalist, his solos often consumes the entire sonic space." - Ken Waxman, JazzWord
 
Состав
Derek Bailey: electric guitar
Mick Beck: tenor sax, bassoon and whistles
Paul Hession: drumset
По всем вопросам пишите личное сообщение пользователю M0p94ok.
05:08
118
Нет комментариев. Ваш будет первым!