Вы используете незарегистрированную версию компонента "Вкладки"!

Поиск

(Avant-Garde Jazz, Free Improvisation) Dennis Gonzalez New Dallas Sextet - Namesake {1987} - 2003, APE (tracks+.cue), lossless

(Avant-Garde Jazz, Free Improvisation) Dennis Gonzalez New Dallas Sextet - Namesake {1987} - 2003, APE (tracks+.cue), lossless
Треклист:
•Dennis Gonzalez New Dallas Sextet - Namesake {1987}•
Жанр: Avant-Garde Jazz, Free Improvisation
Страна-производитель диска: Germany
Год издания: 2003
Издатель (лейбл): Silkheart
Номер по каталогу: SHCD 106
Аудиокодек: APE (*.flac)
Тип рипа: tracks+.cue
Битрейт аудио: lossless
Продолжительность: 00:57:00
Источник (релизер): Рип с диска.
Наличие сканов в содержимом раздачи: да
Треклист:
01. Namesake [15:31]
02. The Separation of Stones [09:09]
03. Johnny-Johnny [08:17]
04. Hamba Khale Qhawe [01:36]
05. Four Pigs And A Bird's Nest [05:36]
06. Hymn For Mbizo [11:35]
07. Good Friends [05:16]
 
Лог создания рипа
Exact Audio Copy V1.0 beta 3 from 29. August 2011
EAC extraction logfile from 15. February 2013, 14:16
Dennis Gonzalez New Dallas Sextet / Namesake
Used drive : Optiarc DVD RW AD-5200A Adapter: 0 ID: 0
Read mode : Secure
Utilize accurate stream : Yes
Defeat audio cache : Yes
Make use of C2 pointers : No
Read offset correction : 48
Overread into Lead-In and Lead-Out : No
Fill up missing offset samples with silence : Yes
Delete leading and trailing silent blocks : No
Null samples used in CRC calculations : Yes
Used interface : Native Win32 interface for Win NT & 2000
Gap handling : Appended to previous track
Used output format : User Defined Encoder
Selected bitrate : 128 kBit/s
Quality : High
Add ID3 tag : No
Command line compressor : F:\Program Files\Monkey's Audio\wapet.exe
Additional command line options : %dest% -t "Genre=%genre%" -t "Artist=%artist%" -t "Title=%title%" -t "Album=%albumtitle%" -t "Year=%year%" -t "Track=%tracknr%" -t "Comment=%comment%" mac.exe %source% %dest% -c3000
TOC of the extracted CD
Track | Start | Length | Start sector | End sector
---------------------------------------------------------
1 | 0:00.73 | 15:31.62 | 73 | 69959
2 | 15:32.60 | 9:09.13 | 69960 | 111147
3 | 24:41.73 | 8:17.00 | 111148 | 148422
4 | 32:58.73 | 1:36.00 | 148423 | 155622
5 | 34:34.73 | 5:36.00 | 155623 | 180822
6 | 40:10.73 | 11:35.00 | 180823 | 232947
7 | 51:45.73 | 5:16.00 | 232948 | 256647
Track 1
Filename G:\2003.Dennis Gonzalez New Dallas Sextet - Namesake\01. Namesake.wav
Pre-gap length 0:00:02.73
Peak level 88.5 %
Extraction speed 2.8 X
Track quality 100.0 %
Test CRC FE6BFDF3
Copy CRC FE6BFDF3
Cannot be verified as accurate (confidence 2) [36F37B32], AccurateRip returned [EFF31A20] (AR v2)
Copy OK
Track 2
Filename G:\2003.Dennis Gonzalez New Dallas Sextet - Namesake\02. The Separation of Stones.wav
Pre-gap length 0:00:04.17
Peak level 64.8 %
Extraction speed 3.4 X
Track quality 100.0 %
Test CRC 25924195
Copy CRC 25924195
Cannot be verified as accurate (confidence 2) [F7B16603], AccurateRip returned [30F37D41] (AR v2)
Copy OK
Track 3
Filename G:\2003.Dennis Gonzalez New Dallas Sextet - Namesake\03. Johnny-Johnny.wav
Pre-gap length 0:00:04.20
Peak level 81.4 %
Extraction speed 3.6 X
Track quality 99.9 %
Test CRC 9C55146C
Copy CRC 9C55146C
Cannot be verified as accurate (confidence 2) [840DB887], AccurateRip returned [3E417EE7] (AR v2)
Copy OK
Track 4
Filename G:\2003.Dennis Gonzalez New Dallas Sextet - Namesake\04. Hamba Khale Qhawe.wav
Pre-gap length 0:00:04.13
Peak level 45.0 %
Extraction speed 3.1 X
Track quality 100.0 %
Test CRC 6A459B43
Copy CRC 6A459B43
Cannot be verified as accurate (confidence 2) [F56E2B34], AccurateRip returned [CD812480] (AR v2)
Copy OK
Track 5
Filename G:\2003.Dennis Gonzalez New Dallas Sextet - Namesake\05. Four Pigs And A Bird's Nest.wav
Pre-gap length 0:00:00.23
Peak level 82.5 %
Extraction speed 3.6 X
Track quality 99.9 %
Test CRC 68980C64
Copy CRC 68980C64
Cannot be verified as accurate (confidence 2) [FC50E6FA], AccurateRip returned [C25EBA64] (AR v2)
Copy OK
Track 6
Filename G:\2003.Dennis Gonzalez New Dallas Sextet - Namesake\06. Hymn For Mbizo.wav
Pre-gap length 0:00:03.08
Peak level 63.6 %
Extraction speed 4.5 X
Track quality 100.0 %
Test CRC 4CA74A84
Copy CRC 4CA74A84
Cannot be verified as accurate (confidence 2) [E802D5C4], AccurateRip returned [5CEC91D0] (AR v2)
Copy OK
Track 7
Filename G:\2003.Dennis Gonzalez New Dallas Sextet - Namesake\07. Good Friends.wav
Pre-gap length 0:00:03.50
Peak level 86.0 %
Extraction speed 4.5 X
Track quality 100.0 %
Test CRC AFE3580B
Copy CRC AFE3580B
Cannot be verified as accurate (confidence 2) [E74091DC], AccurateRip returned [B7EBC26A] (AR v2)
Copy OK
No tracks could be verified as accurate
You may have a different pressing from the one(s) in the database
No errors occurred
End of status report
==== Log checksum BD6942735832F55C4DE277B0F14FC64FA292C514E775485D870C2EE7D8B3CFF5 ====
 
Содержание индексной карты (.CUE)
REM GENRE Jazz
REM DATE 2003
REM DISCID 570D5D07
REM COMMENT "ExactAudioCopy v1.0b3"
PERFORMER "Dennis Gonzalez New Dallas Sextet"
TITLE "Namesake"
FILE "01. Namesake.wav" WAVE
TRACK 01 AUDIO
TITLE "Namesake"
PERFORMER "Dennis Gonzalez New Dallas Sextet"
PREGAP 00:00:73
INDEX 01 00:00:00
TRACK 02 AUDIO
TITLE "The Separation of Stones"
PERFORMER "Dennis Gonzalez New Dallas Sextet"
INDEX 00 15:27:45
FILE "02. The Separation of Stones.wav" WAVE
INDEX 01 00:00:00
TRACK 03 AUDIO
TITLE "Johnny-Johnny"
PERFORMER "Dennis Gonzalez New Dallas Sextet"
INDEX 00 09:04:68
FILE "03. Johnny-Johnny.wav" WAVE
INDEX 01 00:00:00
TRACK 04 AUDIO
TITLE "Hamba Khale Qhawe"
PERFORMER "Dennis Gonzalez New Dallas Sextet"
INDEX 00 08:12:62
FILE "04. Hamba Khale Qhawe.wav" WAVE
INDEX 01 00:00:00
TRACK 05 AUDIO
TITLE "Four Pigs And A Bird's Nest"
PERFORMER "Dennis Gonzalez New Dallas Sextet"
INDEX 00 01:35:52
FILE "05. Four Pigs And A Bird's Nest.wav" WAVE
INDEX 01 00:00:00
TRACK 06 AUDIO
TITLE "Hymn For Mbizo"
PERFORMER "Dennis Gonzalez New Dallas Sextet"
INDEX 00 05:32:67
FILE "06. Hymn For Mbizo.wav" WAVE
INDEX 01 00:00:00
TRACK 07 AUDIO
TITLE "Good Friends"
PERFORMER "Dennis Gonzalez New Dallas Sextet"
INDEX 00 11:31:25
FILE "07. Good Friends.wav" WAVE
INDEX 01 00:00:00
 
Состав
Personnel: Dennis Gonzalez (trumpet, flugelhorn); Douglas Ewart (bass clarinet, alto saxophone); Charles Brackeen (tenor saxophone); Ahmed Abdullah (trumpet, flugelhorn); Alvin Fielder (drums); Malachi Favors (bass).
Any questions -> support@pro-jazz.com. По всем вопросам пишите -> support@pro-jazz.com
09:19
167
Нет комментариев. Ваш будет первым!