Вы используете незарегистрированную версию компонента "Вкладки"!

Поиск

(Avant-Garde Jazz, Free Improvisation) David S. Ware, Cooper-Moore, William Parker, Muhammad Ali - Planetary Unknown - 2011, FLAC (tracks+.cue), lossless

(Avant-Garde Jazz, Free Improvisation) David S. Ware, Cooper-Moore, William Parker, Muhammad Ali - Planetary Unknown - 2011, FLAC (tracks+.cue), lossless
Треклист:
•David S. Ware, Cooper-Moore, William Parker, Muhammad Ali - Planetary Unknown•
Жанр: Avant-Garde Jazz, Free Improvisation
Страна-производитель диска: US
Год издания: 2011
Издатель (лейбл): AUM Fidelity
Номер по каталогу: AUM068
Аудиокодек: FLAC (*.flac)
Тип рипа: tracks+.cue
Битрейт аудио: lossless
Продолжительность: 01:12:28
Источник (релизер): CozyS
Наличие сканов в содержимом раздачи: да
Треклист:
01. Passage Wudang (21:56)
02. Shift (7:34)
03. Duality Is One (7:00)
04. Divination (9:27)
05. Crystal Palace (3:40)
06. Divination Unfathomable (9:26)
07. Ancestry Supramental (13:25)
Personnel:
David S. Ware: saxophones
Cooper-Moore: piano
William Parker: bass
Muhammad Ali: drums
 
Лог создания рипа
Exact Audio Copy V0.99 prebeta 5 from 4. May 2009
EAC extraction logfile from 12. March 2012, 20:08
David S. Ware, Cooper-Moore, William Parker, Muhammad Ali / Planetary Unknown
Used drive : TSSTcorpCD/DVDW TS-H552L Adapter: 4 ID: 0
Read mode : Secure
Utilize accurate stream : Yes
Defeat audio cache : Yes
Make use of C2 pointers : No
Read offset correction : 6
Overread into Lead-In and Lead-Out : No
Fill up missing offset samples with silence : Yes
Delete leading and trailing silent blocks : No
Null samples used in CRC calculations : Yes
Used interface : Native Win32 interface for Win NT & 2000
Gap handling : Appended to previous track
Used output format : User Defined Encoder
Selected bitrate : 1024 kBit/s
Quality : High
Add ID3 tag : No
Command line compressor : C:\Program Files (x86)\FLAC\flac.exe
Additional command line options : -8 -V -T "ARTIST=%a" -T "TITLE=%t" -T "ALBUM=%g" -T "DATE=%y" -T "TRACKNUMBER=%n" -T "GENRE=%m" -T "COMMENT=EAC FLAC -8" %s
TOC of the extracted CD
Track | Start | Length | Start sector | End sector
---------------------------------------------------------
1 | 0:00.00 | 21:55.47 | 0 | 98671
2 | 21:55.47 | 7:34.26 | 98672 | 132747
3 | 29:29.73 | 6:59.49 | 132748 | 164221
4 | 36:29.47 | 9:27.32 | 164222 | 206778
5 | 45:57.04 | 3:40.07 | 206779 | 223285
6 | 49:37.11 | 9:20.64 | 223286 | 265349
7 | 58:58.00 | 13:30.13 | 265350 | 326112
Track 1
Filename C:\EAC\David S. Ware - Planetary Unknown (2011)\01 - Passage Wudang.wav
Pre-gap length 0:00:02.00
Peak level 97.7 %
Track quality 99.9 %
Test CRC 88F63F75
Copy CRC 88F63F75
Track not present in AccurateRip database
Copy OK
Track 2
Filename C:\EAC\David S. Ware - Planetary Unknown (2011)\02 - Shift.wav
Peak level 97.7 %
Track quality 100.0 %
Test CRC DCBD9A73
Copy CRC DCBD9A73
Track not present in AccurateRip database
Copy OK
Track 3
Filename C:\EAC\David S. Ware - Planetary Unknown (2011)\03 - Duality Is One.wav
Peak level 97.7 %
Track quality 100.0 %
Test CRC 74986784
Copy CRC 74986784
Track not present in AccurateRip database
Copy OK
Track 4
Filename C:\EAC\David S. Ware - Planetary Unknown (2011)\04 - Divination.wav
Peak level 97.7 %
Track quality 100.0 %
Test CRC 105129C7
Copy CRC 105129C7
Track not present in AccurateRip database
Copy OK
Track 5
Filename C:\EAC\David S. Ware - Planetary Unknown (2011)\05 - Crystal Palace.wav
Peak level 97.7 %
Track quality 100.0 %
Test CRC 13E523B9
Copy CRC 13E523B9
Track not present in AccurateRip database
Copy OK
Track 6
Filename C:\EAC\David S. Ware - Planetary Unknown (2011)\06 - Divination Unfathomable.wav
Peak level 97.7 %
Track quality 99.9 %
Test CRC 0C7F0FB4
Copy CRC 0C7F0FB4
Track not present in AccurateRip database
Copy OK
Track 7
Filename C:\EAC\David S. Ware - Planetary Unknown (2011)\07 - Ancestry Supramental.wav
Peak level 97.7 %
Track quality 100.0 %
Test CRC C84E2228
Copy CRC C84E2228
Track not present in AccurateRip database
Copy OK
None of the tracks are present in the AccurateRip database
No errors occurred
End of status report
 
Содержание индексной карты (.CUE)
REM GENRE Jazz
REM DATE 2011
REM DISCID 6910FC07
REM COMMENT "ExactAudioCopy v0.99pb5"
PERFORMER "David S. Ware, Cooper-Moore, William Parker, Muhammad Ali"
TITLE "Planetary Unknown"
FILE "01 - Passage Wudang.wav" WAVE
TRACK 01 AUDIO
TITLE "Passage Wudang"
PERFORMER "David S. Ware, Cooper-Moore, William Parker, Muhammad Ali"
INDEX 01 00:00:00
FILE "02 - Shift.wav" WAVE
TRACK 02 AUDIO
TITLE "Shift"
PERFORMER "David S. Ware, Cooper-Moore, William Parker, Muhammad Ali"
INDEX 01 00:00:00
FILE "03 - Duality Is One.wav" WAVE
TRACK 03 AUDIO
TITLE "Duality Is One"
PERFORMER "David S. Ware, Cooper-Moore, William Parker, Muhammad Ali"
INDEX 01 00:00:00
FILE "04 - Divination.wav" WAVE
TRACK 04 AUDIO
TITLE "Divination"
PERFORMER "David S. Ware, Cooper-Moore, William Parker, Muhammad Ali"
INDEX 01 00:00:00
FILE "05 - Crystal Palace.wav" WAVE
TRACK 05 AUDIO
TITLE "Crystal Palace"
PERFORMER "David S. Ware, Cooper-Moore, William Parker, Muhammad Ali"
INDEX 01 00:00:00
FILE "06 - Divination Unfathomable.wav" WAVE
TRACK 06 AUDIO
TITLE "Divination Unfathomable"
PERFORMER "David S. Ware, Cooper-Moore, William Parker, Muhammad Ali"
INDEX 01 00:00:00
FILE "07 - Ancestry Supramental.wav" WAVE
TRACK 07 AUDIO
TITLE "Ancestry Supramental"
PERFORMER "David S. Ware, Cooper-Moore, William Parker, Muhammad Ali"
INDEX 01 00:00:00
Any questions -> support@pro-jazz.com. По всем вопросам пишите -> support@pro-jazz.com
23:34
187
Нет комментариев. Ваш будет первым!