Вы используете незарегистрированную версию компонента "Вкладки"!

Поиск

(Avant-Garde Jazz, Free Improvisation) [CD] William Parker - Wood Flute Songs: Anthology { Live 2006-2012, 8CD, Box Set} - 2013, FLAC (tracks+.cue), lossless

(Avant-Garde Jazz, Free Improvisation) [CD] William Parker - Wood Flute Songs: Anthology { Live 2006-2012, 8CD, Box Set} - 2013, FLAC (tracks+.cue), lossless
Треклист:
♦ William Parker - Wood Flute Songs: Anthology { Live 2006-2012, 8CD, Box Set} ♦
Жанр: Avant-Garde Jazz, Free Improvisation
Носитель: CD
Страна-производитель диска: USA
Год издания: 2013
Издатель (лейбл): AUM Fidelity
Номер по каталогу: AUM080–87
Аудиокодек: FLAC (*.flac)
Тип рипа: tracks+.cue
Битрейт аудио: lossless
Продолжительность: 09:29:35
Источник (релизер): ruskaval
Наличие сканов в содержимом раздачи: да
 
♦ CD1 - Quartet - Live At Yoshi’s 2006 (01:09:19)
Треклист:

01. Tears For The Children Of Rwanda [25:11]
02. Petit Oiseau [15:01]
03. Groove #7 [14:19]
04. Hopi Spirits [14:47]
 
Лог создания рипа
Exact Audio Copy V1.0 beta 1 from 15. November 2010
EAC extraction logfile from 15. January 2014, 7:09
William Parker Quartet / Live At Yoshi's 2006 (1st Set)
Used drive : TSSTcorpCDDVDW TS-L633A Adapter: 3 ID: 0
Read mode : Secure
Utilize accurate stream : Yes
Defeat audio cache : Yes
Make use of C2 pointers : No
Read offset correction : 6
Overread into Lead-In and Lead-Out : No
Fill up missing offset samples with silence : Yes
Delete leading and trailing silent blocks : No
Null samples used in CRC calculations : Yes
Used interface : Installed external ASPI interface
Gap handling : Appended to previous track
Used output format : User Defined Encoder
Selected bitrate : 896 kBit/s
Quality : High
Add ID3 tag : No
Command line compressor : C:\Program Files\Exact Audio Copy\FLAC\FLAC.EXE
Additional command line options : -8 -V -T "ARTIST=%a" -T "TITLE=%t" -T "ALBUM=%g" -T "DATE=%y" -T "TRACKNUMBER=%n" -T "TOTALTRACKS=%x" -T "GENRE=%m" -T "ALBUMARTIST=%v" -T "ALBUM ARTIST=%v" -T "COMMENT=EAC Secure Mode, Test & Copy, AccurateRip, FLAC -8" %s
TOC of the extracted CD
Track | Start | Length | Start sector | End sector
---------------------------------------------------------
1 | 0:00.00 | 25:11.52 | 0 | 113376
2 | 25:11.52 | 15:01.14 | 113377 | 180965
3 | 40:12.66 | 14:19.24 | 180966 | 245414
4 | 54:32.15 | 14:47.10 | 245415 | 311949
Track 1
Filename C:\MY RIPS\01 - Tears For The Children Of Rwanda.wav
Pre-gap length 0:00:02.00
Peak level 99.9 %
Extraction speed 1.6 X
Track quality 100.0 %
Test CRC EC63D953
Copy CRC EC63D953
Accurately ripped (confidence 1) [E3F97C06]
Copy OK
Track 2
Filename C:\MY RIPS\02 - Petit Oiseau.wav
Peak level 100.0 %
Extraction speed 1.8 X
Track quality 99.9 %
Test CRC DDB7D4E4
Copy CRC DDB7D4E4
Accurately ripped (confidence 1) [500E15C6]
Copy OK
Track 3
Filename C:\MY RIPS\03 - Groove #7.wav
Peak level 96.7 %
Extraction speed 2.3 X
Track quality 100.0 %
Test CRC F5C8D681
Copy CRC F5C8D681
Accurately ripped (confidence 1) [1A791C53]
Copy OK
Track 4
Filename C:\MY RIPS\04 - Hopi Spirits.wav
Peak level 92.8 %
Extraction speed 2.5 X
Track quality 100.0 %
Test CRC 740EBA19
Copy CRC 740EBA19
Accurately ripped (confidence 1) [3D974742]
Copy OK
All tracks accurately ripped
No errors occurred
End of status report
==== Log checksum 741C7B0FBB45D3FE4864F9587C3A6A02988A571EFCC6EEB13D811963894979E4 ====
 
Содержание индексной карты (.CUE)
REM DISCID 27103F04
REM COMMENT "ExactAudioCopy v1.0b1"
PERFORMER "William Parker Quartet"
TITLE "Live At Yoshi's 2006 (1st Set)"
FILE "01 - Tears For The Children Of Rwanda.wav" WAVE
TRACK 01 AUDIO
TITLE "Tears For The Children Of Rwanda"
PERFORMER "William Parker Quartet"
INDEX 01 00:00:00
FILE "02 - Petit Oiseau.wav" WAVE
TRACK 02 AUDIO
TITLE "Petit Oiseau"
PERFORMER "William Parker Quartet"
INDEX 01 00:00:00
FILE "03 - Groove #7.wav" WAVE
TRACK 03 AUDIO
TITLE "Groove #7"
PERFORMER "William Parker Quartet"
INDEX 01 00:00:00
FILE "04 - Hopi Spirits.wav" WAVE
TRACK 04 AUDIO
TITLE "Hopi Spirits"
PERFORMER "William Parker Quartet"
INDEX 01 00:00:00
 
♦ CD2 - Quartet - Live At Yoshi’s 2006 (01:15:41)
Треклист:

01. Wood Flute Song [21:14]
02. Alphaville \ Daughter's Joy \ The Golden Bell [42:36]
03. Malachi's Mode [11:50]
 
Лог создания рипа
Exact Audio Copy V1.0 beta 1 from 15. November 2010
EAC extraction logfile from 15. January 2014, 15:43
William Parker Quartet / Live At Yoshi's 2006 (2nd Set)
Used drive : TSSTcorpCDDVDW TS-L633A Adapter: 3 ID: 0
Read mode : Secure
Utilize accurate stream : Yes
Defeat audio cache : Yes
Make use of C2 pointers : No
Read offset correction : 6
Overread into Lead-In and Lead-Out : No
Fill up missing offset samples with silence : Yes
Delete leading and trailing silent blocks : No
Null samples used in CRC calculations : Yes
Used interface : Installed external ASPI interface
Gap handling : Appended to previous track
Used output format : User Defined Encoder
Selected bitrate : 896 kBit/s
Quality : High
Add ID3 tag : No
Command line compressor : C:\Program Files\Exact Audio Copy\FLAC\FLAC.EXE
Additional command line options : -8 -V -T "ARTIST=%a" -T "TITLE=%t" -T "ALBUM=%g" -T "DATE=%y" -T "TRACKNUMBER=%n" -T "TOTALTRACKS=%x" -T "GENRE=%m" -T "ALBUMARTIST=%v" -T "ALBUM ARTIST=%v" -T "COMMENT=EAC Secure Mode, Test & Copy, AccurateRip, FLAC -8" %s
TOC of the extracted CD
Track | Start | Length | Start sector | End sector
---------------------------------------------------------
1 | 0:00.00 | 21:14.29 | 0 | 95578
2 | 21:14.29 | 42:36.41 | 95579 | 287319
3 | 63:50.70 | 11:50.26 | 287320 | 340595
Track 1
Filename C:\MY RIPS\01 - Wood Flute Song.wav
Pre-gap length 0:00:02.00
Peak level 94.5 %
Extraction speed 1.6 X
Track quality 100.0 %
Test CRC F9F43FEF
Copy CRC F9F43FEF
Track not present in AccurateRip database
Copy OK
Track 2
Filename C:\MY RIPS\02 - Alphaville - Daughter's Joy - The Golden Bell.wav
Peak level 100.0 %
Extraction speed 2.2 X
Track quality 99.9 %
Test CRC A445837E
Copy CRC A445837E
Track not present in AccurateRip database
Copy OK
Track 3
Filename C:\MY RIPS\03 - Malachi's Mode.wav
Peak level 97.8 %
Extraction speed 2.6 X
Track quality 100.0 %
Test CRC 13D23AE2
Copy CRC 13D23AE2
Track not present in AccurateRip database
Copy OK
None of the tracks are present in the AccurateRip database
No errors occurred
End of status report
==== Log checksum 8D0FB74611793E372AD3D547F8960AFA96DCE01909FB18DE93AC98A51B228B8D ====
 
Содержание индексной карты (.CUE)
REM DISCID 2211BD03
REM COMMENT "ExactAudioCopy v1.0b1"
PERFORMER "William Parker Quartet"
TITLE "Live At Yoshi's 2006 (2nd Set)"
FILE "01 - Wood Flute Song.wav" WAVE
TRACK 01 AUDIO
TITLE "Wood Flute Song"
PERFORMER "William Parker Quartet"
INDEX 01 00:00:00
FILE "02 - Alphaville - Daughter's Joy - The Golden Bell.wav" WAVE
TRACK 02 AUDIO
TITLE "Alphaville \ Daughter's Joy \ The Golden Bell"
PERFORMER "William Parker Quartet"
INDEX 01 00:00:00
FILE "03 - Malachi's Mode.wav" WAVE
TRACK 03 AUDIO
TITLE "Malachi's Mode"
PERFORMER "William Parker Quartet"
INDEX 01 00:00:00
 
♦ CD3 - Quartet - Live In Houston 2007(01:13:45)
Треклист:

01. Groove #7 [11:13]
02. Hawai [09:32]
03. Broken Roofs \ Green Paper [12:57]
04. Hamid's Groove \ Daughter's Joy [21:17]
05. Malachi's Mode [07:00]
06. Corn Meal Dance [02:54]
07. Corn Meal Dance (Yoshi's 2006) [08:50]
 
Лог создания рипа
Exact Audio Copy V1.0 beta 1 from 15. November 2010
EAC extraction logfile from 15. January 2014, 22:22
William Parker Quartet / Live In Houston 2007 (1st Set)
Used drive : TSSTcorpCDDVDW TS-L633A Adapter: 3 ID: 0
Read mode : Secure
Utilize accurate stream : Yes
Defeat audio cache : Yes
Make use of C2 pointers : No
Read offset correction : 6
Overread into Lead-In and Lead-Out : No
Fill up missing offset samples with silence : Yes
Delete leading and trailing silent blocks : No
Null samples used in CRC calculations : Yes
Used interface : Installed external ASPI interface
Gap handling : Appended to previous track
Used output format : User Defined Encoder
Selected bitrate : 896 kBit/s
Quality : High
Add ID3 tag : No
Command line compressor : C:\Program Files\Exact Audio Copy\FLAC\FLAC.EXE
Additional command line options : -8 -V -T "ARTIST=%a" -T "TITLE=%t" -T "ALBUM=%g" -T "DATE=%y" -T "TRACKNUMBER=%n" -T "TOTALTRACKS=%x" -T "GENRE=%m" -T "ALBUMARTIST=%v" -T "ALBUM ARTIST=%v" -T "COMMENT=EAC Secure Mode, Test & Copy, AccurateRip, FLAC -8" %s
TOC of the extracted CD
Track | Start | Length | Start sector | End sector
---------------------------------------------------------
1 | 0:00.00 | 11:13.68 | 0 | 50542
2 | 11:13.68 | 9:32.09 | 50543 | 93451
3 | 20:46.02 | 12:57.17 | 93452 | 151743
4 | 33:43.19 | 21:17.16 | 151744 | 247534
5 | 55:00.35 | 7:00.09 | 247535 | 279043
6 | 62:00.44 | 2:54.32 | 279044 | 292125
7 | 64:55.01 | 8:50.61 | 292126 | 331936
Track 1
Filename C:\MY RIPS\01 - Groove #7.wav
Pre-gap length 0:00:02.00
Peak level 100.0 %
Extraction speed 1.4 X
Track quality 100.0 %
Test CRC 0BB142F9
Copy CRC 0BB142F9
Track not present in AccurateRip database
Copy OK
Track 2
Filename C:\MY RIPS\02 - Hawai.wav
Peak level 100.0 %
Extraction speed 1.6 X
Track quality 100.0 %
Test CRC 1287BA43
Copy CRC 1287BA43
Track not present in AccurateRip database
Copy OK
Track 3
Filename C:\MY RIPS\03 - Broken Roofs - Green Paper.wav
Peak level 100.0 %
Extraction speed 1.9 X
Track quality 100.0 %
Test CRC 598AC024
Copy CRC 598AC024
Track not present in AccurateRip database
Copy OK
Track 4
Filename C:\MY RIPS\04 - Hamid's Groove - Daughter's Joy.wav
Peak level 100.0 %
Extraction speed 2.3 X
Track quality 100.0 %
Test CRC F0738A93
Copy CRC F0738A93
Track not present in AccurateRip database
Copy OK
Track 5
Filename C:\MY RIPS\05 - Malachi's Mode.wav
Peak level 100.0 %
Extraction speed 2.4 X
Track quality 100.0 %
Test CRC 50F728CF
Copy CRC 50F728CF
Track not present in AccurateRip database
Copy OK
Track 6
Filename C:\MY RIPS\06 - Corn Meal Dance.wav
Peak level 98.1 %
Extraction speed 2.2 X
Track quality 100.0 %
Test CRC 53A5BD62
Copy CRC 53A5BD62
Track not present in AccurateRip database
Copy OK
Track 7
Filename C:\MY RIPS\07 - Corn Meal Dance (Yoshi's 2006).wav
Peak level 95.6 %
Extraction speed 2.6 X
Track quality 100.0 %
Test CRC A2346556
Copy CRC A2346556
Track not present in AccurateRip database
Copy OK
None of the tracks are present in the AccurateRip database
No errors occurred
End of status report
==== Log checksum 5CD1CD1E3B429D2B9F13633F00E899C0012C77148DC457D2FA6B85DBE340CC84 ====
 
Содержание индексной карты (.CUE)
REM DISCID 5D114907
REM COMMENT "ExactAudioCopy v1.0b1"
PERFORMER "William Parker Quartet"
TITLE "Live In Houston 2007 (1st Set)"
FILE "01 - Groove #7.wav" WAVE
TRACK 01 AUDIO
TITLE "Groove #7"
PERFORMER "William Parker Quartet"
INDEX 01 00:00:00
FILE "02 - Hawai.wav" WAVE
TRACK 02 AUDIO
TITLE "Hawai"
PERFORMER "William Parker Quartet"
INDEX 01 00:00:00
FILE "03 - Broken Roofs - Green Paper.wav" WAVE
TRACK 03 AUDIO
TITLE "Broken Roofs \ Green Paper"
PERFORMER "William Parker Quartet"
INDEX 01 00:00:00
FILE "04 - Hamid's Groove - Daughter's Joy.wav" WAVE
TRACK 04 AUDIO
TITLE "Hamid's Groove \ Daughter's Joy"
PERFORMER "William Parker Quartet"
INDEX 01 00:00:00
FILE "05 - Malachi's Mode.wav" WAVE
TRACK 05 AUDIO
TITLE "Malachi's Mode"
PERFORMER "William Parker Quartet"
INDEX 01 00:00:00
FILE "06 - Corn Meal Dance.wav" WAVE
TRACK 06 AUDIO
TITLE "Corn Meal Dance"
PERFORMER "William Parker Quartet"
INDEX 01 00:00:00
FILE "07 - Corn Meal Dance (Yoshi's 2006).wav" WAVE
TRACK 07 AUDIO
TITLE "Corn Meal Dance (Yoshi's 2006)"
PERFORMER "William Parker Quartet"
INDEX 01 00:00:00
 
♦ CD4 - Quartet - Live in Houston 2007 (01:14:32)
Треклист:

01. O'Neal's Porch [09:51]
02. Red Desert [09:15]
03. Ojibway Song [14:31]
04. Sunrise In The Tone World [06:24]
05. The Square Sun [07:11]
06. Etchings [09:39]
07. Ascent Of The Big Spirit [08:36]
08. Moon (Yoshi's 2006) [09:01]
 
Лог создания рипа
Exact Audio Copy V1.0 beta 1 from 15. November 2010
EAC extraction logfile from 16. January 2014, 13:40
William Parker Quartet / Live In Houston 2007 (2nd Set)
Used drive : TSSTcorpCDDVDW TS-L633A Adapter: 3 ID: 0
Read mode : Secure
Utilize accurate stream : Yes
Defeat audio cache : Yes
Make use of C2 pointers : No
Read offset correction : 6
Overread into Lead-In and Lead-Out : No
Fill up missing offset samples with silence : Yes
Delete leading and trailing silent blocks : No
Null samples used in CRC calculations : Yes
Used interface : Installed external ASPI interface
Gap handling : Appended to previous track
Used output format : User Defined Encoder
Selected bitrate : 896 kBit/s
Quality : High
Add ID3 tag : No
Command line compressor : C:\Program Files\Exact Audio Copy\FLAC\FLAC.EXE
Additional command line options : -8 -V -T "ARTIST=%a" -T "TITLE=%t" -T "ALBUM=%g" -T "DATE=%y" -T "TRACKNUMBER=%n" -T "TOTALTRACKS=%x" -T "GENRE=%m" -T "ALBUMARTIST=%v" -T "ALBUM ARTIST=%v" -T "COMMENT=EAC Secure Mode, Test & Copy, AccurateRip, FLAC -8" %s
TOC of the extracted CD
Track | Start | Length | Start sector | End sector
---------------------------------------------------------
1 | 0:00.00 | 9:51.38 | 0 | 44362
2 | 9:51.38 | 9:15.26 | 44363 | 86013
3 | 19:06.64 | 14:31.20 | 86014 | 151358
4 | 33:38.09 | 6:24.63 | 151359 | 180221
5 | 40:02.72 | 7:11.47 | 180222 | 212593
6 | 47:14.44 | 9:39.32 | 212594 | 256050
7 | 56:54.01 | 8:36.59 | 256051 | 294809
8 | 65:30.60 | 9:01.52 | 294810 | 335436
Track 1
Filename C:\MY RIPS\01 - O'Neal's Porch.wav
Pre-gap length 0:00:02.00
Peak level 100.0 %
Extraction speed 1.4 X
Track quality 100.0 %
Test CRC 24D916EE
Copy CRC 24D916EE
Track not present in AccurateRip database
Copy OK
Track 2
Filename C:\MY RIPS\02 - Red Desert.wav
Peak level 100.0 %
Extraction speed 1.7 X
Track quality 100.0 %
Test CRC E7570A44
Copy CRC E7570A44
Track not present in AccurateRip database
Copy OK
Track 3
Filename C:\MY RIPS\03 - Ojibway Song.wav
Peak level 100.0 %
Extraction speed 2.0 X
Track quality 100.0 %
Test CRC 320DD2F5
Copy CRC 320DD2F5
Track not present in AccurateRip database
Copy OK
Track 4
Filename C:\MY RIPS\04 - Sunrise In The Tone World.wav
Peak level 100.0 %
Extraction speed 1.6 X
Track quality 99.9 %
Test CRC 7501DFA5
Copy CRC 7501DFA5
Track not present in AccurateRip database
Copy OK
Track 5
Filename C:\MY RIPS\05 - The Square Sun.wav
Peak level 97.5 %
Extraction speed 2.2 X
Track quality 100.0 %
Test CRC 32010FB0
Copy CRC 32010FB0
Track not present in AccurateRip database
Copy OK
Track 6
Filename C:\MY RIPS\06 - Etchings.wav
Peak level 100.0 %
Extraction speed 2.0 X
Track quality 99.9 %
Test CRC 11A8DEC9
Copy CRC 11A8DEC9
Track not present in AccurateRip database
Copy OK
Track 7
Filename C:\MY RIPS\07 - Ascent Of The Big Spirit.wav
Peak level 100.0 %
Extraction speed 2.5 X
Track quality 100.0 %
Test CRC E9C880DA
Copy CRC E9C880DA
Track not present in AccurateRip database
Copy OK
Track 8
Filename C:\MY RIPS\08 - Moon (Yoshi's 2006).wav
Peak level 100.0 %
Extraction speed 2.6 X
Track quality 100.0 %
Test CRC 8F7808CB
Copy CRC 8F7808CB
Track not present in AccurateRip database
Copy OK
None of the tracks are present in the AccurateRip database
No errors occurred
End of status report
==== Log checksum 1961CC7EE1EB85170DD4688D18A913A7C8300E90E9AE4227395F87F76FA6D1C4 ====
 
Содержание индексной карты (.CUE)
REM DISCID 61117808
REM COMMENT "ExactAudioCopy v1.0b1"
PERFORMER "William Parker Quartet"
TITLE "Live In Houston 2007 (2nd Set)"
FILE "01 - O'Neal's Porch.wav" WAVE
TRACK 01 AUDIO
TITLE "O'Neal's Porch"
PERFORMER "William Parker Quartet"
INDEX 01 00:00:00
FILE "02 - Red Desert.wav" WAVE
TRACK 02 AUDIO
TITLE "Red Desert"
PERFORMER "William Parker Quartet"
INDEX 01 00:00:00
FILE "03 - Ojibway Song.wav" WAVE
TRACK 03 AUDIO
TITLE "Ojibway Song"
PERFORMER "William Parker Quartet"
INDEX 01 00:00:00
FILE "04 - Sunrise In The Tone World.wav" WAVE
TRACK 04 AUDIO
TITLE "Sunrise In The Tone World"
PERFORMER "William Parker Quartet"
INDEX 01 00:00:00
FILE "05 - The Square Sun.wav" WAVE
TRACK 05 AUDIO
TITLE "The Square Sun"
PERFORMER "William Parker Quartet"
INDEX 01 00:00:00
FILE "06 - Etchings.wav" WAVE
TRACK 06 AUDIO
TITLE "Etchings"
PERFORMER "William Parker Quartet"
INDEX 01 00:00:00
FILE "07 - Ascent Of The Big Spirit.wav" WAVE
TRACK 07 AUDIO
TITLE "Ascent Of The Big Spirit"
PERFORMER "William Parker Quartet"
INDEX 01 00:00:00
FILE "08 - Moon (Yoshi's 2006).wav" WAVE
TRACK 08 AUDIO
TITLE "Moon (Yoshi's 2006)"
PERFORMER "William Parker Quartet"
INDEX 01 00:00:00
 
♦ CD5 - Septet - Light Cottage Draped In A Curtain Of Blues (01:05:01)
Треклист:

01. O'Neal's Porch [13:41]
02. Daughter's Joy [11:34]
03. Gilmore's Hat [07:13]
04. Deep Flower \ Ascent Of The Big Spirit [17:10]
05. Wood Flute Song [06:13]
06. Chicago [09:06]
 
Лог создания рипа
Exact Audio Copy V1.0 beta 1 from 15. November 2010
EAC extraction logfile from 16. January 2014, 14:56
William Parker Septet / Light Cottage Draped In A Curtain Of Blues
Used drive : TSSTcorpCDDVDW TS-L633A Adapter: 3 ID: 0
Read mode : Secure
Utilize accurate stream : Yes
Defeat audio cache : Yes
Make use of C2 pointers : No
Read offset correction : 6
Overread into Lead-In and Lead-Out : No
Fill up missing offset samples with silence : Yes
Delete leading and trailing silent blocks : No
Null samples used in CRC calculations : Yes
Used interface : Installed external ASPI interface
Gap handling : Appended to previous track
Used output format : User Defined Encoder
Selected bitrate : 896 kBit/s
Quality : High
Add ID3 tag : No
Command line compressor : C:\Program Files\Exact Audio Copy\FLAC\FLAC.EXE
Additional command line options : -8 -V -T "ARTIST=%a" -T "TITLE=%t" -T "ALBUM=%g" -T "DATE=%y" -T "TRACKNUMBER=%n" -T "TOTALTRACKS=%x" -T "GENRE=%m" -T "ALBUMARTIST=%v" -T "ALBUM ARTIST=%v" -T "COMMENT=EAC Secure Mode, Test & Copy, AccurateRip, FLAC -8" %s
TOC of the extracted CD
Track | Start | Length | Start sector | End sector
---------------------------------------------------------
1 | 0:00.00 | 13:41.57 | 0 | 61631
2 | 13:41.57 | 11:34.63 | 61632 | 113744
3 | 25:16.45 | 7:13.56 | 113745 | 146275
4 | 32:30.26 | 17:10.44 | 146276 | 223569
5 | 49:40.70 | 6:13.41 | 223570 | 251585
6 | 55:54.36 | 9:06.43 | 251586 | 292578
Track 1
Filename C:\MY RIPS\01 - O'Neal's Porch.wav
Pre-gap length 0:00:02.00
Peak level 90.1 %
Extraction speed 1.3 X
Track quality 100.0 %
Test CRC 24157476
Copy CRC 24157476
Track not present in AccurateRip database
Copy OK
Track 2
Filename C:\MY RIPS\02 - Daughter's Joy.wav
Peak level 97.0 %
Extraction speed 1.6 X
Track quality 100.0 %
Test CRC 877C9CA6
Copy CRC 877C9CA6
Track not present in AccurateRip database
Copy OK
Track 3
Filename C:\MY RIPS\03 - Gilmore's Hat.wav
Peak level 97.0 %
Extraction speed 1.8 X
Track quality 100.0 %
Test CRC 14E55BD1
Copy CRC 14E55BD1
Track not present in AccurateRip database
Copy OK
Track 4
Filename C:\MY RIPS\04 - Deep Flower - Ascent Of The Big Spirit.wav
Peak level 97.0 %
Extraction speed 2.1 X
Track quality 100.0 %
Test CRC 0C89FCC2
Copy CRC 0C89FCC2
Track not present in AccurateRip database
Copy OK
Track 5
Filename C:\MY RIPS\05 - Wood Flute Song.wav
Peak level 96.9 %
Extraction speed 1.7 X
Track quality 99.9 %
Test CRC BA5F24B5
Copy CRC BA5F24B5
Track not present in AccurateRip database
Copy OK
Track 6
Filename C:\MY RIPS\06 - Chicago.wav
Peak level 89.8 %
Extraction speed 1.9 X
Track quality 99.9 %
Test CRC 2C3FBCFC
Copy CRC 2C3FBCFC
Track not present in AccurateRip database
Copy OK
None of the tracks are present in the AccurateRip database
No errors occurred
End of status report
==== Log checksum 958BCD349696994703E6F03ECDEADCBAAB74B3DBC84BA6C7E09AE5F2EF16E7BC ====
 
Содержание индексной карты (.CUE)
REM DISCID 550F3D06
REM COMMENT "ExactAudioCopy v1.0b1"
PERFORMER "William Parker Septet"
TITLE "Light Cottage Draped In A Curtain Of Blues"
FILE "01 - O'Neal's Porch.wav" WAVE
TRACK 01 AUDIO
TITLE "O'Neal's Porch"
PERFORMER "William Parker Septet"
INDEX 01 00:00:00
FILE "02 - Daughter's Joy.wav" WAVE
TRACK 02 AUDIO
TITLE "Daughter's Joy"
PERFORMER "William Parker Septet"
INDEX 01 00:00:00
FILE "03 - Gilmore's Hat.wav" WAVE
TRACK 03 AUDIO
TITLE "Gilmore's Hat"
PERFORMER "William Parker Septet"
INDEX 01 00:00:00
FILE "04 - Deep Flower - Ascent Of The Big Spirit.wav" WAVE
TRACK 04 AUDIO
TITLE "Deep Flower \ Ascent Of The Big Spirit"
PERFORMER "William Parker Septet"
INDEX 01 00:00:00
FILE "05 - Wood Flute Song.wav" WAVE
TRACK 05 AUDIO
TITLE "Wood Flute Song"
PERFORMER "William Parker Septet"
INDEX 01 00:00:00
FILE "06 - Chicago.wav" WAVE
TRACK 06 AUDIO
TITLE "Chicago"
PERFORMER "William Parker Septet"
INDEX 01 00:00:00
 
♦ CD6 - Creation - Ensemble (01:09:25)
Треклист:

01. Psalm for Billy Bang [05:58]
02. All I Want [02:39]
03. Earth In Pain [19:03]
04. Deep Flower [22:44]
05. Wood Flute Song [19:00]
 
Лог создания рипа
Exact Audio Copy V1.0 beta 1 from 15. November 2010
EAC extraction logfile from 16. January 2014, 21:31
William Parker AMR Ensemble / Creation
Used drive : TSSTcorpCDDVDW TS-L633A Adapter: 3 ID: 0
Read mode : Secure
Utilize accurate stream : Yes
Defeat audio cache : Yes
Make use of C2 pointers : No
Read offset correction : 6
Overread into Lead-In and Lead-Out : No
Fill up missing offset samples with silence : Yes
Delete leading and trailing silent blocks : No
Null samples used in CRC calculations : Yes
Used interface : Installed external ASPI interface
Gap handling : Appended to previous track
Used output format : User Defined Encoder
Selected bitrate : 896 kBit/s
Quality : High
Add ID3 tag : No
Command line compressor : C:\Program Files\Exact Audio Copy\FLAC\FLAC.EXE
Additional command line options : -8 -V -T "ARTIST=%a" -T "TITLE=%t" -T "ALBUM=%g" -T "DATE=%y" -T "TRACKNUMBER=%n" -T "TOTALTRACKS=%x" -T "GENRE=%m" -T "ALBUMARTIST=%v" -T "ALBUM ARTIST=%v" -T "COMMENT=EAC Secure Mode, Test & Copy, AccurateRip, FLAC -8" %s
TOC of the extracted CD
Track | Start | Length | Start sector | End sector
---------------------------------------------------------
1 | 0:00.00 | 5:58.34 | 0 | 26883
2 | 5:58.34 | 2:39.68 | 26884 | 38876
3 | 8:38.27 | 19:03.10 | 38877 | 124611
4 | 27:41.37 | 22:44.13 | 124612 | 226924
5 | 50:25.50 | 19:00.13 | 226925 | 312437
Track 1
Filename C:\MY RIPS\01 - Psalm for Billy Bang.wav
Pre-gap length 0:00:02.00
Peak level 97.5 %
Extraction speed 1.2 X
Track quality 100.0 %
Test CRC 565C8689
Copy CRC 565C8689
Track not present in AccurateRip database
Copy OK
Track 2
Filename C:\MY RIPS\02 - All I Want.wav
Peak level 95.4 %
Extraction speed 1.2 X
Track quality 100.0 %
Test CRC 6B9AE4B2
Copy CRC 6B9AE4B2
Track not present in AccurateRip database
Copy OK
Track 3
Filename C:\MY RIPS\03 - Earth In Pain.wav
Peak level 100.0 %
Extraction speed 1.7 X
Track quality 100.0 %
Test CRC BF176001
Copy CRC BF176001
Track not present in AccurateRip database
Copy OK
Track 4
Filename C:\MY RIPS\04 - Deep Flower.wav
Peak level 100.0 %
Extraction speed 2.2 X
Track quality 100.0 %
Test CRC 42B5A570
Copy CRC 42B5A570
Track not present in AccurateRip database
Copy OK
Track 5
Filename C:\MY RIPS\05 - Wood Flute Song.wav
Peak level 99.5 %
Extraction speed 2.5 X
Track quality 100.0 %
Test CRC 3850D821
Copy CRC 3850D821
Track not present in AccurateRip database
Copy OK
None of the tracks are present in the AccurateRip database
No errors occurred
End of status report
==== Log checksum E2C29F31DB891464D4A3BD86E2FE52C55C521AB4717D819F6F3A3F57243FDEA7 ====
 
Содержание индексной карты (.CUE)
REM DISCID 2E104505
REM COMMENT "ExactAudioCopy v1.0b1"
PERFORMER "William Parker AMR Ensemble"
TITLE "Creation"
FILE "01 - Psalm for Billy Bang.wav" WAVE
TRACK 01 AUDIO
TITLE "Psalm for Billy Bang"
PERFORMER "William Parker AMR Ensemble"
INDEX 01 00:00:00
FILE "02 - All I Want.wav" WAVE
TRACK 02 AUDIO
TITLE "All I Want"
PERFORMER "William Parker AMR Ensemble"
INDEX 01 00:00:00
FILE "03 - Earth In Pain.wav" WAVE
TRACK 03 AUDIO
TITLE "Earth In Pain"
PERFORMER "William Parker AMR Ensemble"
INDEX 01 00:00:00
FILE "04 - Deep Flower.wav" WAVE
TRACK 04 AUDIO
TITLE "Deep Flower"
PERFORMER "William Parker AMR Ensemble"
INDEX 01 00:00:00
FILE "05 - Wood Flute Song.wav" WAVE
TRACK 05 AUDIO
TITLE "Wood Flute Song"
PERFORMER "William Parker AMR Ensemble"
INDEX 01 00:00:00
 
♦ CD7 - Raining On The Moon - Friday Afternoon (01:12:06)
Треклист:

01. 3+3 = Jackie McLean [13:31]
02. My Name Is Peace [13:39]
03. Late Man Of This Planet [09:02]
04. For Abbey Lincoln [16:07]
05. Boom Boom Bang Bang [14:40]
06. Sweet Breeze [05:05]
 
Лог создания рипа
Exact Audio Copy V1.0 beta 1 from 15. November 2010
EAC extraction logfile from 15. January 2014, 14:11
Raining On The Moon / Friday Afternoon
Used drive : TSSTcorpCDDVDW TS-L633A Adapter: 3 ID: 0
Read mode : Secure
Utilize accurate stream : Yes
Defeat audio cache : Yes
Make use of C2 pointers : No
Read offset correction : 6
Overread into Lead-In and Lead-Out : No
Fill up missing offset samples with silence : Yes
Delete leading and trailing silent blocks : No
Null samples used in CRC calculations : Yes
Used interface : Installed external ASPI interface
Gap handling : Appended to previous track
Used output format : User Defined Encoder
Selected bitrate : 896 kBit/s
Quality : High
Add ID3 tag : No
Command line compressor : C:\Program Files\Exact Audio Copy\FLAC\FLAC.EXE
Additional command line options : -8 -V -T "ARTIST=%a" -T "TITLE=%t" -T "ALBUM=%g" -T "DATE=%y" -T "TRACKNUMBER=%n" -T "TOTALTRACKS=%x" -T "GENRE=%m" -T "ALBUMARTIST=%v" -T "ALBUM ARTIST=%v" -T "COMMENT=EAC Secure Mode, Test & Copy, AccurateRip, FLAC -8" %s
TOC of the extracted CD
Track | Start | Length | Start sector | End sector
---------------------------------------------------------
1 | 0:00.00 | 13:31.47 | 0 | 60871
2 | 13:31.47 | 13:39.00 | 60872 | 122296
3 | 27:10.47 | 9:02.15 | 122297 | 162961
4 | 36:12.62 | 16:07.60 | 162962 | 235546
5 | 52:20.47 | 14:40.39 | 235547 | 301585
6 | 67:01.11 | 5:05.08 | 301586 | 324468
Track 1
Filename C:\MY RIPS\01 - 3+3 = Jackie McLean.wav
Pre-gap length 0:00:02.00
Peak level 100.0 %
Extraction speed 1.4 X
Track quality 100.0 %
Test CRC E94B7269
Copy CRC E94B7269
Track not present in AccurateRip database
Copy OK
Track 2
Filename C:\MY RIPS\02 - My Name Is Peace.wav
Peak level 100.0 %
Extraction speed 1.8 X
Track quality 100.0 %
Test CRC 048FD597
Copy CRC 048FD597
Track not present in AccurateRip database
Copy OK
Track 3
Filename C:\MY RIPS\03 - Late Man Of This Planet.wav
Peak level 100.0 %
Extraction speed 2.0 X
Track quality 100.0 %
Test CRC 4B6C8E72
Copy CRC 4B6C8E72
Track not present in AccurateRip database
Copy OK
Track 4
Filename C:\MY RIPS\04 - For Abbey Lincoln.wav
Peak level 100.0 %
Extraction speed 2.3 X
Track quality 100.0 %
Test CRC 4571E061
Copy CRC 4571E061
Track not present in AccurateRip database
Copy OK
Track 5
Filename C:\MY RIPS\05 - Boom Boom Bang Bang.wav
Peak level 100.0 %
Extraction speed 2.5 X
Track quality 100.0 %
Test CRC A106C111
Copy CRC A106C111
Track not present in AccurateRip database
Copy OK
Track 6
Filename C:\MY RIPS\06 - Sweet Breeze.wav
Peak level 73.2 %
Extraction speed 2.4 X
Track quality 100.0 %
Test CRC 8B3B8010
Copy CRC 8B3B8010
Track not present in AccurateRip database
Copy OK
None of the tracks are present in the AccurateRip database
No errors occurred
End of status report
==== Log checksum 0D9E8CE09048912296A4B65BE7EF3B1C7D92420D4F4BE434A9C6F8E291201208 ====
 
Содержание индексной карты (.CUE)
REM DISCID 3B10E606
REM COMMENT "ExactAudioCopy v1.0b1"
PERFORMER "Raining On The Moon"
TITLE "Friday Afternoon"
FILE "01 - 3+3 = Jackie McLean.wav" WAVE
TRACK 01 AUDIO
TITLE "3+3 = Jackie McLean"
PERFORMER "Raining On The Moon"
INDEX 01 00:00:00
FILE "02 - My Name Is Peace.wav" WAVE
TRACK 02 AUDIO
TITLE "My Name Is Peace"
PERFORMER "Raining On The Moon"
INDEX 01 00:00:00
FILE "03 - Late Man Of This Planet.wav" WAVE
TRACK 03 AUDIO
TITLE "Late Man Of This Planet"
PERFORMER "Raining On The Moon"
INDEX 01 00:00:00
FILE "04 - For Abbey Lincoln.wav" WAVE
TRACK 04 AUDIO
TITLE "For Abbey Lincoln"
PERFORMER "Raining On The Moon"
INDEX 01 00:00:00
FILE "05 - Boom Boom Bang Bang.wav" WAVE
TRACK 05 AUDIO
TITLE "Boom Boom Bang Bang"
PERFORMER "Raining On The Moon"
INDEX 01 00:00:00
FILE "06 - Sweet Breeze.wav" WAVE
TRACK 06 AUDIO
TITLE "Sweet Breeze"
PERFORMER "Raining On The Moon"
INDEX 01 00:00:00
 
♦ CD8 - In Order To Survive - Kalaparusha On The Edge Of The Horizon (01:09:43)
Треклист:

01. Aquixo Waiting At Dark Corridor [09:00]
02. Falling Promise [09:30]
03. Slipping Into The Light [06:40]
04. Shadows Arms Waving [15:06]
05. Theme For Rondo Hatton [16:49]
06. Prayer-Improv [05:52]
07. Great Spirit [06:44]
 
Лог создания рипа
Exact Audio Copy V1.0 beta 1 from 15. November 2010
EAC extraction logfile from 14. January 2014, 22:38
William Parker \ In Order To Survive / Kalaparusha On The Edge Of The Horizon
Used drive : TSSTcorpCDDVDW TS-L633A Adapter: 3 ID: 0
Read mode : Secure
Utilize accurate stream : Yes
Defeat audio cache : Yes
Make use of C2 pointers : No
Read offset correction : 6
Overread into Lead-In and Lead-Out : No
Fill up missing offset samples with silence : Yes
Delete leading and trailing silent blocks : No
Null samples used in CRC calculations : Yes
Used interface : Installed external ASPI interface
Gap handling : Appended to previous track
Used output format : User Defined Encoder
Selected bitrate : 896 kBit/s
Quality : High
Add ID3 tag : No
Command line compressor : C:\Program Files\Exact Audio Copy\FLAC\FLAC.EXE
Additional command line options : -8 -V -T "ARTIST=%a" -T "TITLE=%t" -T "ALBUM=%g" -T "DATE=%y" -T "TRACKNUMBER=%n" -T "TOTALTRACKS=%x" -T "GENRE=%m" -T "ALBUMARTIST=%v" -T "ALBUM ARTIST=%v" -T "COMMENT=EAC Secure Mode, Test & Copy, AccurateRip, FLAC -8" %s
TOC of the extracted CD
Track | Start | Length | Start sector | End sector
---------------------------------------------------------
1 | 0:00.00 | 9:00.66 | 0 | 40565
2 | 9:00.66 | 9:30.32 | 40566 | 83347
3 | 18:31.23 | 6:40.22 | 83348 | 113369
4 | 25:11.45 | 15:06.09 | 113370 | 181328
5 | 40:17.54 | 16:49.48 | 181329 | 257051
6 | 57:07.27 | 5:52.02 | 257052 | 283453
7 | 62:59.29 | 6:44.33 | 283454 | 313786
Track 1
Filename C:\MY RIPS\01 - Aquixo Waiting At Dark Corridor.wav
Pre-gap length 0:00:02.00
Peak level 97.8 %
Extraction speed 1.3 X
Track quality 100.0 %
Test CRC D4CCEE6F
Copy CRC D4CCEE6F
Track not present in AccurateRip database
Copy OK
Track 2
Filename C:\MY RIPS\02 - Falling Promise.wav
Peak level 97.1 %
Extraction speed 1.6 X
Track quality 100.0 %
Test CRC 82091173
Copy CRC 82091173
Track not present in AccurateRip database
Copy OK
Track 3
Filename C:\MY RIPS\03 - Slipping Into The Light.wav
Peak level 100.0 %
Extraction speed 1.7 X
Track quality 100.0 %
Test CRC 1CD6DC10
Copy CRC 1CD6DC10
Track not present in AccurateRip database
Copy OK
Track 4
Filename C:\MY RIPS\04 - Shadows Arms Waving.wav
Peak level 100.0 %
Extraction speed 2.1 X
Track quality 100.0 %
Test CRC EC2A4A57
Copy CRC EC2A4A57
Track not present in AccurateRip database
Copy OK
Track 5
Filename C:\MY RIPS\05 - Theme For Rondo Hatton.wav
Peak level 100.0 %
Extraction speed 2.4 X
Track quality 100.0 %
Test CRC 3C5FDDCF
Copy CRC 3C5FDDCF
Track not present in AccurateRip database
Copy OK
Track 6
Filename C:\MY RIPS\06 - Prayer-Improv.wav
Peak level 94.2 %
Extraction speed 2.4 X
Track quality 100.0 %
Test CRC 7472A899
Copy CRC 7472A899
Track not present in AccurateRip database
Copy OK
Track 7
Filename C:\MY RIPS\07 - Great Spirit.wav
Peak level 94.2 %
Extraction speed 2.5 X
Track quality 100.0 %
Test CRC E4865ECB
Copy CRC E4865ECB
Track not present in AccurateRip database
Copy OK
None of the tracks are present in the AccurateRip database
No errors occurred
End of status report
==== Log checksum 834BB13CD4693D35780F4D55C2186A8D70FEE2703867987E0E852C80B421E9C0 ====
 
Содержание индексной карты (.CUE)
REM DISCID 52105707
REM COMMENT "ExactAudioCopy v1.0b1"
PERFORMER "William Parker \ In Order To Survive"
TITLE "Kalaparusha On The Edge Of The Horizon"
FILE "01 - Aquixo Waiting At Dark Corridor.wav" WAVE
TRACK 01 AUDIO
TITLE "Aquixo Waiting At Dark Corridor"
PERFORMER "William Parker \ In Order To Survive"
INDEX 01 00:00:00
FILE "02 - Falling Promise.wav" WAVE
TRACK 02 AUDIO
TITLE "Falling Promise"
PERFORMER "William Parker \ In Order To Survive"
INDEX 01 00:00:00
FILE "03 - Slipping Into The Light.wav" WAVE
TRACK 03 AUDIO
TITLE "Slipping Into The Light"
PERFORMER "William Parker \ In Order To Survive"
INDEX 01 00:00:00
FILE "04 - Shadows Arms Waving.wav" WAVE
TRACK 04 AUDIO
TITLE "Shadows Arms Waving"
PERFORMER "William Parker \ In Order To Survive"
INDEX 01 00:00:00
FILE "05 - Theme For Rondo Hatton.wav" WAVE
TRACK 05 AUDIO
TITLE "Theme For Rondo Hatton"
PERFORMER "William Parker \ In Order To Survive"
INDEX 01 00:00:00
FILE "06 - Prayer-Improv.wav" WAVE
TRACK 06 AUDIO
TITLE "Prayer-Improv"
PERFORMER "William Parker \ In Order To Survive"
INDEX 01 00:00:00
FILE "07 - Great Spirit.wav" WAVE
TRACK 07 AUDIO
TITLE "Great Spirit"
PERFORMER "William Parker \ In Order To Survive"
INDEX 01 00:00:00
 
Состав
Personnel:
William Parker: bass+, compositions (all CDs)
Hamid Drake: drums (all CDs)
Rob Brown: alto sax (all CDs)
Lewis Barnes: trumpet (all CDs)
Billy Bang: violin (CD5)
Bobby Bradford: cornet (CD5)
James Spaulding: alto sax (CD5)
AMR Ensemble (CD6)
Massimo Pinca: bass
Aina Rakotobe: baritone sax
Ernie Odoom: voice
Ludovic Lagana: trumpet
Philippe Ehinger: bass clarinet
Maurice Magnoni: soprano sax
Manu Gesseney: alto sax
Stéphane Métraux: tenor sax
Eri Yamamoto: piano (CD7)
Leena Conquest: vocals (CD7)
Cooper-Moore: piano (CD8)
По всем вопросам пишите личное сообщение пользователю M0p94ok.
23:29
154
Нет комментариев. Ваш будет первым!