Вы используете незарегистрированную версию компонента "Вкладки"!

Поиск

(Avant-Garde Jazz, Free Improvisation) [CD] Trio-X (Joe McPhee, Dominic Duval, Jay Rosen) - Journey - 2003, FLAC (tracks+.cue), lossless

(Avant-Garde Jazz, Free Improvisation) [CD] Trio-X (Joe McPhee, Dominic Duval, Jay Rosen) - Journey - 2003, FLAC (tracks+.cue), lossless
Треклист:
Trio-X / Journey
Жанр: Avant-Garde Jazz, Free Improvisation
Носитель: CD
Страна-производитель диска (релиза): US
Год издания: 2003
Издатель (лейбл): CIMP
Номер по каталогу: 283
Аудиокодек: FLAC (*.flac)
Тип рипа: tracks+.cue
Битрейт аудио: lossless
Продолжительность: 71:05
Источник (релизер): CD
Наличие сканов в содержимом раздачи: нет
Треклист:
1. Episode 1: That Was/This Is 6:10
2. Episode 2: Journey 11:58
3. Episode 3: Jaywalkin' 9:19
4. Episode 4: Blue Moves 6:56
5. Episode 5: Autograph 12:18
6. Episode 6: Everything In Nothing Flat 6:02
7. Episode 7: For Charles Moffett 3:04
8. Episode 8: Rossie 2 Step 5:16
9. Episode 9: Albert's Alto 4:40
10. Episode 10: Amazing Grace 4:54
 
Лог создания рипа
Exact Audio Copy V1.0 beta 3 from 29. August 2011
EAC extraction logfile from 19. January 2015, 16:14
Trio-X (McPhee, Duval, Rosen) / Journey
Used drive : ASUS DRW-24F1ST a Adapter: 0 ID: 0
Read mode : Secure
Utilize accurate stream : Yes
Defeat audio cache : Yes
Make use of C2 pointers : No
Read offset correction : 6
Overread into Lead-In and Lead-Out : No
Fill up missing offset samples with silence : Yes
Delete leading and trailing silent blocks : No
Null samples used in CRC calculations : Yes
Used interface : Native Win32 interface for Win NT & 2000
Gap handling : Appended to previous track
Used output format : User Defined Encoder
Selected bitrate : 320 kBit/s
Quality : High
Add ID3 tag : No
Command line compressor : D:\Programs\Exact Audio Copy\Flac\flac.exe
Additional command line options : -V -8 -T "Genre=%genre%" -T "Artist=%artist%" -T "Title=%title%" -T "Album=%albumtitle%" -T "Date=%year%" -T "Tracknumber=%tracknr%" -T "Comment=%comment%" %source%
TOC of the extracted CD
Track | Start | Length | Start sector | End sector
---------------------------------------------------------
1 | 0:00.00 | 6:13.07 | 0 | 27981
2 | 6:13.07 | 12:00.66 | 27982 | 82047
3 | 18:13.73 | 9:21.68 | 82048 | 124190
4 | 27:35.66 | 6:58.65 | 124191 | 155605
5 | 34:34.56 | 12:21.05 | 155606 | 211185
6 | 46:55.61 | 6:05.26 | 211186 | 238586
7 | 53:01.12 | 3:06.74 | 238587 | 252610
8 | 56:08.11 | 5:19.15 | 252611 | 276550
9 | 61:27.26 | 4:43.30 | 276551 | 297805
10 | 66:10.56 | 4:54.62 | 297806 | 319917
Track 1
Filename D:\EAC\01 Episode 01. That Was, This Is.wav
Pre-gap length 0:00:02.00
Peak level 100.0 %
Extraction speed 5.0 X
Track quality 100.0 %
Test CRC E1B058D4
Copy CRC E1B058D4
Copy OK
Track 2
Filename D:\EAC\02 Episode 02. Journey.wav
Pre-gap length 0:00:02.57
Peak level 90.1 %
Extraction speed 6.3 X
Track quality 100.0 %
Test CRC 2F4AC733
Copy CRC 2F4AC733
Copy OK
Track 3
Filename D:\EAC\03 Episode 03. Jaywalkin'.wav
Pre-gap length 0:00:02.57
Peak level 100.0 %
Extraction speed 7.3 X
Track quality 100.0 %
Test CRC D8A4C646
Copy CRC D8A4C646
Copy OK
Track 4
Filename D:\EAC\04 Episode 04. Blue Moves.wav
Pre-gap length 0:00:02.58
Peak level 32.0 %
Extraction speed 7.6 X
Track quality 100.0 %
Test CRC 3881A5EE
Copy CRC 3881A5EE
Copy OK
Track 5
Filename D:\EAC\05 Episode 05. Autograph.wav
Pre-gap length 0:00:02.58
Peak level 55.9 %
Extraction speed 8.6 X
Track quality 100.0 %
Test CRC FAE9FB0A
Copy CRC FAE9FB0A
Copy OK
Track 6
Filename D:\EAC\06 Episode 06. Everything In Nothing Flat.wav
Pre-gap length 0:00:02.58
Peak level 100.0 %
Extraction speed 8.8 X
Track quality 100.0 %
Test CRC 8F17396C
Copy CRC 8F17396C
Copy OK
Track 7
Filename D:\EAC\07 Episode 07. For Charles Moffett.wav
Pre-gap length 0:00:02.57
Peak level 93.1 %
Extraction speed 8.2 X
Track quality 100.0 %
Test CRC 0AEE1E0A
Copy CRC 0AEE1E0A
Copy OK
Track 8
Filename D:\EAC\08 Episode 08. Rossie 2 Step.wav
Pre-gap length 0:00:02.57
Peak level 91.2 %
Extraction speed 9.1 X
Track quality 100.0 %
Test CRC F5A11868
Copy CRC F5A11868
Copy OK
Track 9
Filename D:\EAC\09 Episode 09. Albert's Alto.wav
Pre-gap length 0:00:02.57
Peak level 72.4 %
Extraction speed 9.2 X
Track quality 100.0 %
Test CRC 8C9EEDF4
Copy CRC 8C9EEDF4
Copy OK
Track 10
Filename D:\EAC\10 Episode 10. Amazing Grace.wav
Pre-gap length 0:00:02.57
Peak level 22.2 %
Extraction speed 8.6 X
Track quality 99.9 %
Test CRC 7EE52863
Copy CRC 7EE52863
Copy OK
No errors occurred
End of status report
==== Log checksum CAA9350B1AFB758CE8C4807A8944925F0D5B566F1E33DD453CD5F9177FF1E143 ====
 
Содержание индексной карты (.CUE)
REM GENRE Jazz
REM DATE 2003
REM DISCID 9F10A90A
REM COMMENT "ExactAudioCopy v1.0b3"
PERFORMER "Trio-X (McPhee, Duval, Rosen)"
TITLE "Journey"
FILE "01 Episode 01. That Was, This Is.wav" WAVE
TRACK 01 AUDIO
TITLE "Episode 01. That Was, This Is"
PERFORMER "Trio-X (McPhee, Duval, Rosen)"
INDEX 01 00:00:00
TRACK 02 AUDIO
TITLE "Episode 02. Journey"
PERFORMER "Trio-X (McPhee, Duval, Rosen)"
INDEX 00 06:10:25
FILE "02 Episode 02. Journey.wav" WAVE
INDEX 01 00:00:00
TRACK 03 AUDIO
TITLE "Episode 03. Jaywalkin'"
PERFORMER "Trio-X (McPhee, Duval, Rosen)"
INDEX 00 11:58:09
FILE "03 Episode 03. Jaywalkin'.wav" WAVE
INDEX 01 00:00:00
TRACK 04 AUDIO
TITLE "Episode 04. Blue Moves"
PERFORMER "Trio-X (McPhee, Duval, Rosen)"
INDEX 00 09:19:10
FILE "04 Episode 04. Blue Moves.wav" WAVE
INDEX 01 00:00:00
TRACK 05 AUDIO
TITLE "Episode 05. Autograph"
PERFORMER "Trio-X (McPhee, Duval, Rosen)"
INDEX 00 06:56:07
FILE "05 Episode 05. Autograph.wav" WAVE
INDEX 01 00:00:00
TRACK 06 AUDIO
TITLE "Episode 06. Everything In Nothing Flat"
PERFORMER "Trio-X (McPhee, Duval, Rosen)"
INDEX 00 12:18:22
FILE "06 Episode 06. Everything In Nothing Flat.wav" WAVE
INDEX 01 00:00:00
TRACK 07 AUDIO
TITLE "Episode 07. For Charles Moffett"
PERFORMER "Trio-X (McPhee, Duval, Rosen)"
INDEX 00 06:02:44
FILE "07 Episode 07. For Charles Moffett.wav" WAVE
INDEX 01 00:00:00
TRACK 08 AUDIO
TITLE "Episode 08. Rossie 2 Step"
PERFORMER "Trio-X (McPhee, Duval, Rosen)"
INDEX 00 03:04:17
FILE "08 Episode 08. Rossie 2 Step.wav" WAVE
INDEX 01 00:00:00
TRACK 09 AUDIO
TITLE "Episode 09. Albert's Alto"
PERFORMER "Trio-X (McPhee, Duval, Rosen)"
INDEX 00 05:16:33
FILE "09 Episode 09. Albert's Alto.wav" WAVE
INDEX 01 00:00:00
TRACK 10 AUDIO
TITLE "Episode 10. Amazing Grace"
PERFORMER "Trio-X (McPhee, Duval, Rosen)"
INDEX 00 04:40:48
FILE "10 Episode 10. Amazing Grace.wav" WAVE
INDEX 01 00:00:00
Доп. информация: Recorded at The Spirit Room, Rossie, NY, Feb. 6 & 7, 2003
 
Об альбоме (сборнике)
This is the fifth recording for Trio X, and, as with the others, it presents free jazz of the highest caliber. Producer Bob Rusch writes in the liner notes that the name of the group derives from a somewhat "cynical" reaction to the group being ignored at clubs and festivals, with the name signifying "...the unknown, unrecognized, and unacknowledged participants." In truth, you could not ask for a more accomplished, in-synch set of musical partners. There is a near-perfect synergy among them, so much so that they seem to anticipate each other's every move, almost like dancers who instinctively follow one another's steps. One of the criticisms of the seemingly ubiquitous sax-with-rhythm trio is that each one tends to sound the same. These fellows break the mold by refusing to indulge exclusively in the mind-numbing ecstatic blow-outs that are so common. Much of the credit is due to Joe McPhee's exquisite sense of melody: even when intense, he infuses every note with thoughtful control. The results reflect the group's natural reticence and attraction to nuance, something that is especially evident on "Journey." Overall, though, this is not music for the fainthearted, as delicacy is juxtaposed with aggressive expression. On "Albert's Alto," for example, the ghost of Albert Ayler is resurrected but never cloned, and his spirit absorbed and reincarnated. The closing "Amazing Grace," in memory of Dominic Duval's late wife, is perhaps the highlight of the album, a lovely, even exquisitely executed reflection of deeply held sentiments.
 
Состав
Alto Saxophone, Tenor Saxophone – Joe McPhee
Double Bass – Dominic Duval
Drums – Jay Rosen
По всем вопросам пишите личное сообщение пользователю M0p94ok.
08:31
174
Нет комментариев. Ваш будет первым!