Вы используете незарегистрированную версию компонента "Вкладки"!

Поиск

(Avant-Garde Jazz, Free Improvisation) [CD] Triage (Dave Rempis, Jason Ajemian, Tim Daisy) - Twenty Minute Cliff - 2003, FLAC (tracks+.cue), lossless

(Avant-Garde Jazz, Free Improvisation) [CD] Triage (Dave Rempis, Jason Ajemian, Tim Daisy) - Twenty Minute Cliff - 2003, FLAC (tracks+.cue), lossless
Треклист:
Triage / Twenty Minute Cliff
Жанр: Avant-Garde Jazz, Free Improvisation
Носитель: CD
Страна-производитель диска (релиза): US
Год издания: 2003
Издатель (лейбл): Okka Disk
Номер по каталогу: OD12045
Аудиокодек: FLAC (*.flac)
Тип рипа: tracks+.cue
Битрейт аудио: lossless
Продолжительность: 73:38
Источник (релизер): CD
Наличие сканов в содержимом раздачи: нет
Треклист:
1. Angles Of 90 Degrees 5:09
2. Leo's Leaving The Room 10:22
3. Sound Sound 10:08
4. Sun Dawgs 6:50
5. Lamento 9:47
6. Mohandiseen 4:32
7. Portrait Of The Stone Age 10:22
8. River Rouge 6:22
9. Glass 10:03
 
Лог создания рипа
Exact Audio Copy V1.0 beta 3 from 29. August 2011
EAC extraction logfile from 19. January 2015, 16:41
Triage / Twenty Minute Cliff
Used drive : ASUS DRW-24F1ST a Adapter: 0 ID: 0
Read mode : Secure
Utilize accurate stream : Yes
Defeat audio cache : Yes
Make use of C2 pointers : No
Read offset correction : 6
Overread into Lead-In and Lead-Out : No
Fill up missing offset samples with silence : Yes
Delete leading and trailing silent blocks : No
Null samples used in CRC calculations : Yes
Used interface : Native Win32 interface for Win NT & 2000
Gap handling : Appended to previous track
Used output format : User Defined Encoder
Selected bitrate : 320 kBit/s
Quality : High
Add ID3 tag : No
Command line compressor : D:\Programs\Exact Audio Copy\Flac\flac.exe
Additional command line options : -V -8 -T "Genre=%genre%" -T "Artist=%artist%" -T "Title=%title%" -T "Album=%albumtitle%" -T "Date=%year%" -T "Tracknumber=%tracknr%" -T "Comment=%comment%" %source%
TOC of the extracted CD
Track | Start | Length | Start sector | End sector
---------------------------------------------------------
1 | 0:00.00 | 5:09.24 | 0 | 23198
2 | 5:09.24 | 10:22.57 | 23199 | 69905
3 | 15:32.06 | 10:08.18 | 69906 | 115523
4 | 25:40.24 | 6:50.22 | 115524 | 146295
5 | 32:30.46 | 9:47.49 | 146296 | 190369
6 | 42:18.20 | 4:32.26 | 190370 | 210795
7 | 46:50.46 | 10:22.31 | 210796 | 257476
8 | 57:13.02 | 6:22.30 | 257477 | 286156
9 | 63:35.32 | 10:03.18 | 286157 | 331399
Track 1
Filename D:\EAC\01 Angles of 90.wav
Pre-gap length 0:00:02.00
Peak level 100.0 %
Extraction speed 5.0 X
Track quality 100.0 %
Test CRC 7E3F1787
Copy CRC 7E3F1787
Copy OK
Track 2
Filename D:\EAC\02 Leo's Leaving the Room.wav
Peak level 100.0 %
Extraction speed 6.2 X
Track quality 100.0 %
Test CRC 829FA862
Copy CRC 829FA862
Copy OK
Track 3
Filename D:\EAC\03 Sound Sound.wav
Peak level 100.0 %
Extraction speed 6.8 X
Track quality 99.9 %
Test CRC 5DEFF0CB
Copy CRC 5DEFF0CB
Copy OK
Track 4
Filename D:\EAC\04 Sun Dawgs.wav
Peak level 100.0 %
Extraction speed 7.6 X
Track quality 100.0 %
Test CRC ED2271E3
Copy CRC ED2271E3
Copy OK
Track 5
Filename D:\EAC\05 Lamento.wav
Peak level 100.0 %
Extraction speed 7.9 X
Track quality 99.9 %
Test CRC B1F29B58
Copy CRC B1F29B58
Copy OK
Track 6
Filename D:\EAC\06 Mohandiseen.wav
Pre-gap length 0:00:00.45
Peak level 100.0 %
Extraction speed 8.2 X
Track quality 100.0 %
Test CRC 3DD33362
Copy CRC 3DD33362
Copy OK
Track 7
Filename D:\EAC\07 Portrait of the Stone Age.wav
Pre-gap length 0:00:01.01
Peak level 100.0 %
Extraction speed 9.3 X
Track quality 100.0 %
Test CRC FFE31D82
Copy CRC FFE31D82
Copy OK
Track 8
Filename D:\EAC\08 River Rouge.wav
Peak level 100.0 %
Extraction speed 9.4 X
Track quality 100.0 %
Test CRC 6E0F4804
Copy CRC 6E0F4804
Copy OK
Track 9
Filename D:\EAC\09 Glass.wav
Peak level 100.0 %
Extraction speed 9.6 X
Track quality 99.9 %
Test CRC 476B0F9A
Copy CRC 476B0F9A
Copy OK
No errors occurred
End of status report
==== Log checksum 5A44D6ACB046D51344DD48AC0A70D895FA8F8E1E37F493E663264204BECC3077 ====
 
Содержание индексной карты (.CUE)
REM GENRE Jazz
REM DATE 2003
REM DISCID 6E114209
REM COMMENT "ExactAudioCopy v1.0b3"
PERFORMER "Triage"
TITLE "Twenty Minute Cliff"
FILE "01 Angles of 90.wav" WAVE
TRACK 01 AUDIO
TITLE "Angles of 90"
PERFORMER "Triage"
INDEX 01 00:00:00
FILE "02 Leo's Leaving the Room.wav" WAVE
TRACK 02 AUDIO
TITLE "Leo's Leaving the Room"
PERFORMER "Triage"
INDEX 01 00:00:00
FILE "03 Sound Sound.wav" WAVE
TRACK 03 AUDIO
TITLE "Sound Sound"
PERFORMER "Triage"
INDEX 01 00:00:00
FILE "04 Sun Dawgs.wav" WAVE
TRACK 04 AUDIO
TITLE "Sun Dawgs"
PERFORMER "Triage"
INDEX 01 00:00:00
FILE "05 Lamento.wav" WAVE
TRACK 05 AUDIO
TITLE "Lamento"
PERFORMER "Triage"
INDEX 01 00:00:00
TRACK 06 AUDIO
TITLE "Mohandiseen"
PERFORMER "Triage"
INDEX 00 09:47:04
FILE "06 Mohandiseen.wav" WAVE
INDEX 01 00:00:00
TRACK 07 AUDIO
TITLE "Portrait of the Stone Age"
PERFORMER "Triage"
INDEX 00 04:31:25
FILE "07 Portrait of the Stone Age.wav" WAVE
INDEX 01 00:00:00
FILE "08 River Rouge.wav" WAVE
TRACK 08 AUDIO
TITLE "River Rouge"
PERFORMER "Triage"
INDEX 01 00:00:00
FILE "09 Glass.wav" WAVE
TRACK 09 AUDIO
TITLE "Glass"
PERFORMER "Triage"
INDEX 01 00:00:00
Доп. информация: Recorded on 16 & 17 Ocober 2002
 
Состав
Alto Saxophone, Tenor Saxophone – Dave Rempis
Bass – Jason Ajemian
Drums – Tim Daisy
По всем вопросам пишите личное сообщение пользователю M0p94ok.
08:29
156
Нет комментариев. Ваш будет первым!