Вы используете незарегистрированную версию компонента "Вкладки"!

Поиск

(Avant-Garde Jazz, Free Improvisation) [CD] Sonny Simmons - Ancient Ritual - 1994, APE (tracks+.cue), lossless

(Avant-Garde Jazz, Free Improvisation) [CD] Sonny Simmons - Ancient Ritual - 1994, APE (tracks+.cue), lossless
Треклист:
♦ Sonny Simmons - Ancient Ritual ♦
Жанр: Avant-Garde Jazz, Free Improvisation
Носитель: CD
Страна-производитель диска: USA
Год издания: 1994
Издатель (лейбл): Qwest / Reprise
Номер по каталогу: 9 45623-2
Аудиокодек: APE (*.ape)
Тип рипа: tracks+.cue
Битрейт аудио: lossless
Продолжительность: 01:09:12
Источник (релизер): Рип с диска.
Наличие сканов в содержимом раздачи: да
Треклист:
01. Reincarnation [06:54]
02. Trumpet Ship [05:48]
03. Theme For Linda [07:17]
04. Crystal [08:26]
05. The Other East [07:20]
06. Country Parson [10:10]
07. Ancient Ritual [12:24]
08. Sundown in Egypt [10:49]
 
Лог создания рипа
Exact Audio Copy V1.0 beta 3 from 29. August 2011
EAC extraction logfile from 18. January 2014, 21:45
Sonny Simmons / Ancient Ritual
Used drive : Optiarc DVD RW AD-5200A Adapter: 0 ID: 0
Read mode : Secure
Utilize accurate stream : Yes
Defeat audio cache : Yes
Make use of C2 pointers : No
Read offset correction : 48
Overread into Lead-In and Lead-Out : No
Fill up missing offset samples with silence : Yes
Delete leading and trailing silent blocks : No
Null samples used in CRC calculations : Yes
Used interface : Native Win32 interface for Win NT & 2000
Gap handling : Appended to previous track
Used output format : User Defined Encoder
Selected bitrate : 128 kBit/s
Quality : High
Add ID3 tag : No
Command line compressor : F:\Program Files\Monkey's Audio\wapet.exe
Additional command line options : %dest% -t "Genre=%genre%" -t "Artist=%artist%" -t "Title=%title%" -t "Album=%albumtitle%" -t "Year=%year%" -t "Track=%tracknr%" -t "Comment=%comment%" mac.exe %source% %dest% -c3000
TOC of the extracted CD
Track | Start | Length | Start sector | End sector
---------------------------------------------------------
1 | 0:00.32 | 6:54.03 | 32 | 31084
2 | 6:54.35 | 5:48.57 | 31085 | 57241
3 | 12:43.17 | 7:17.35 | 57242 | 90051
4 | 20:00.52 | 8:26.68 | 90052 | 128069
5 | 28:27.45 | 7:20.25 | 128070 | 161094
6 | 35:47.70 | 10:10.45 | 161095 | 206889
7 | 45:58.40 | 12:24.37 | 206890 | 262726
8 | 58:23.02 | 10:49.40 | 262727 | 311441
Track 1
Filename F:\1994.Sonny Simmons - Ancient Ritual\01. Reincarnation.wav
Pre-gap length 0:00:02.32
Peak level 90.4 %
Extraction speed 2.6 X
Track quality 100.0 %
Test CRC AC7DA2EB
Copy CRC AC7DA2EB
Accurately ripped (confidence 2) [F38CEE26] (AR v2)
Copy OK
Track 2
Filename F:\1994.Sonny Simmons - Ancient Ritual\02. Trumpet Ship.wav
Pre-gap length 0:00:03.25
Peak level 95.5 %
Extraction speed 2.6 X
Track quality 99.9 %
Test CRC 27BE116B
Copy CRC 27BE116B
Accurately ripped (confidence 2) [89A31AFA] (AR v2)
Copy OK
Track 3
Filename F:\1994.Sonny Simmons - Ancient Ritual\03. Theme For Linda.wav
Pre-gap length 0:00:02.29
Peak level 93.9 %
Extraction speed 3.3 X
Track quality 100.0 %
Test CRC ECD67406
Copy CRC ECD67406
Accurately ripped (confidence 2) [E202B91A] (AR v2)
Copy OK
Track 4
Filename F:\1994.Sonny Simmons - Ancient Ritual\04. Crystal.wav
Pre-gap length 0:00:02.74
Peak level 94.4 %
Extraction speed 1.9 X
Track quality 99.7 %
Test CRC C03A3876
Copy CRC C03A3876
Accurately ripped (confidence 2) [685EEA51] (AR v2)
Copy OK
Track 5
Filename F:\1994.Sonny Simmons - Ancient Ritual\05. The Other East.wav
Pre-gap length 0:00:02.27
Peak level 94.4 %
Extraction speed 3.2 X
Track quality 99.9 %
Test CRC 505382D2
Copy CRC 505382D2
Accurately ripped (confidence 2) [6F8E7109] (AR v2)
Copy OK
Track 6
Filename F:\1994.Sonny Simmons - Ancient Ritual\06. Country Parson.wav
Pre-gap length 0:00:03.12
Peak level 88.4 %
Extraction speed 4.2 X
Track quality 100.0 %
Test CRC 0C49F351
Copy CRC 0C49F351
Accurately ripped (confidence 2) [8AAEC463] (AR v2)
Copy OK
Track 7
Filename F:\1994.Sonny Simmons - Ancient Ritual\07. Ancient Ritual.wav
Pre-gap length 0:00:01.65
Peak level 83.5 %
Extraction speed 4.5 X
Track quality 100.0 %
Test CRC 0FACFC0D
Copy CRC 0FACFC0D
Accurately ripped (confidence 2) [E4A39B58] (AR v2)
Copy OK
Track 8
Filename F:\1994.Sonny Simmons - Ancient Ritual\08. Sundown in Egypt.wav
Pre-gap length 0:00:04.54
Peak level 95.6 %
Extraction speed 5.0 X
Track quality 100.0 %
Test CRC A3F17B97
Copy CRC A3F17B97
Accurately ripped (confidence 2) [7CB276CE] (AR v2)
Copy OK
All tracks accurately ripped
No errors occurred
End of status report
==== Log checksum 7CC8423E7D5AEB570E7D7F978E051BC9D14BE889A42880668A17836B31FF8E46 ====
 
Содержание индексной карты (.CUE)
REM GENRE Jazz
REM DATE 1994
REM DISCID 61103808
REM COMMENT "ExactAudioCopy v1.0b3"
CATALOG 0075994562322
PERFORMER "Sonny Simmons"
TITLE "Ancient Ritual"
FILE "01. Reincarnation.wav" WAVE
TRACK 01 AUDIO
TITLE "Reincarnation"
PERFORMER "Sonny Simmons"
PREGAP 00:00:32
INDEX 01 00:00:00
TRACK 02 AUDIO
TITLE "Trumpet Ship"
PERFORMER "Sonny Simmons"
INDEX 00 06:50:53
FILE "02. Trumpet Ship.wav" WAVE
INDEX 01 00:00:00
TRACK 03 AUDIO
TITLE "Theme For Linda"
PERFORMER "Sonny Simmons"
INDEX 00 05:46:28
FILE "03. Theme For Linda.wav" WAVE
INDEX 01 00:00:00
TRACK 04 AUDIO
TITLE "Crystal"
PERFORMER "Sonny Simmons"
INDEX 00 07:14:36
FILE "04. Crystal.wav" WAVE
INDEX 01 00:00:00
TRACK 05 AUDIO
TITLE "The Other East"
PERFORMER "Sonny Simmons"
INDEX 00 08:24:41
FILE "05. The Other East.wav" WAVE
INDEX 01 00:00:00
TRACK 06 AUDIO
TITLE "Country Parson"
PERFORMER "Sonny Simmons"
INDEX 00 07:17:13
FILE "06. Country Parson.wav" WAVE
INDEX 01 00:00:00
TRACK 07 AUDIO
TITLE "Ancient Ritual"
PERFORMER "Sonny Simmons"
INDEX 00 10:08:55
FILE "07. Ancient Ritual.wav" WAVE
INDEX 01 00:00:00
TRACK 08 AUDIO
TITLE "Sundown in Egypt"
PERFORMER "Sonny Simmons"
INDEX 00 12:19:58
FILE "08. Sundown in Egypt.wav" WAVE
INDEX 01 00:00:00
 
Состав
Sonny Simmons : alto saxophone, English horn
Charnett Moffett : bass
Zarak Simmons : drums
Any questions -> support@pro-jazz.com. По всем вопросам пишите -> support@pro-jazz.com
22:36
155
Нет комментариев. Ваш будет первым!