Поиск

( Avant-Garde Jazz, Free Improvisation) [CD] Sebastiano Meloni, Nicola Cossu, Roberto Dani - Dialogues - 2010, FLAC (tracks+.cue), lossless

( Avant-Garde Jazz, Free Improvisation) [CD] Sebastiano Meloni, Nicola Cossu, Roberto Dani - Dialogues - 2010, FLAC (tracks+.cue), lossless
Sebastiano Meloni, Nicola Cossu, Roberto Dani / Dialogues
Жанр: Avant-Garde Jazz, Free Improvisation
Носитель: CD
Страна-производитель диска (релиза): UK
Год издания: 2010
Издатель (лейбл): Slam Productions
Номер по каталогу: SLAMCD 523
Аудиокодек: FLAC (*.flac)
Тип рипа: tracks+.cue
Битрейт аудио: lossless
Продолжительность: 57:16
Источник (релизер): cd
Наличие сканов в содержимом раздачи: нет
Треклист:
1. Shadows 5:40
2. A Quiet Place 4:41
3. Children 2:49
4. Waking Up 5:17
5. Snowfall 5:56
6. Visions 3:45
7. In The Night 7:04
8. A New Theme 2:56
9. Dialogues 6:57
10. Another Quiet Place 5:10
11. Three Ways 1:55
12. Sleeplessness 4:39
 
Лог создания рипа
Exact Audio Copy V1.0 beta 3 from 29. August 2011
EAC extraction logfile from 4. January 2017, 11:35
Sebastiano Meloni, Nicola Cossu, Roberto Dani / Dialogues
Used drive : ASUS DRW-24F1ST a Adapter: 0 ID: 0
Read mode : Secure
Utilize accurate stream : Yes
Defeat audio cache : Yes
Make use of C2 pointers : No
Read offset correction : 6
Overread into Lead-In and Lead-Out : No
Fill up missing offset samples with silence : Yes
Delete leading and trailing silent blocks : No
Null samples used in CRC calculations : Yes
Used interface : Native Win32 interface for Win NT & 2000
Gap handling : Appended to previous track
Used output format : User Defined Encoder
Selected bitrate : 320 kBit/s
Quality : High
Add ID3 tag : No
Command line compressor : D:\Programs\Exact Audio Copy\Flac\flac.exe
Additional command line options : -V -8 -T "Genre=%genre%" -T "Artist=%artist%" -T "Title=%title%" -T "Album=%albumtitle%" -T "Date=%year%" -T "Tracknumber=%tracknr%" -T "Comment=%comment%" %source%
TOC of the extracted CD
Track | Start | Length | Start sector | End sector
---------------------------------------------------------
1 | 0:00.00 | 5:42.23 | 0 | 25672
2 | 5:42.23 | 4:43.01 | 25673 | 46898
3 | 10:25.24 | 2:51.04 | 46899 | 59727
4 | 13:16.28 | 5:19.67 | 59728 | 83719
5 | 18:36.20 | 5:58.38 | 83720 | 110607
6 | 24:34.58 | 3:47.38 | 110608 | 127670
7 | 28:22.21 | 7:06.14 | 127671 | 159634
8 | 35:28.35 | 2:58.34 | 159635 | 173018
9 | 38:26.69 | 6:59.49 | 173019 | 204492
10 | 45:26.43 | 5:12.23 | 204493 | 227915
11 | 50:38.66 | 1:57.12 | 227916 | 236702
12 | 52:36.03 | 4:39.46 | 236703 | 257673
Track 1
Filename D:\EAC\01 Shadows.wav
Pre-gap length 0:00:02.00
Peak level 99.4 %
Extraction speed 3.2 X
Track quality 99.9 %
Test CRC 8247439A
Copy CRC 8247439A
Track not present in AccurateRip database
Copy OK
Track 2
Filename D:\EAC\02 A Quiet Place.wav
Peak level 61.5 %
Extraction speed 3.9 X
Track quality 100.0 %
Test CRC 73976EC8
Copy CRC 73976EC8
Track not present in AccurateRip database
Copy OK
Track 3
Filename D:\EAC\03 Children.wav
Peak level 72.5 %
Extraction speed 3.0 X
Track quality 100.0 %
Test CRC 966FE6F6
Copy CRC 966FE6F6
Track not present in AccurateRip database
Copy OK
Track 4
Filename D:\EAC\04 Waking Up.wav
Peak level 99.4 %
Extraction speed 3.5 X
Track quality 100.0 %
Test CRC 0AE7FBDD
Copy CRC 0AE7FBDD
Track not present in AccurateRip database
Copy OK
Track 5
Filename D:\EAC\05 Snowfall.wav
Peak level 98.9 %
Extraction speed 3.8 X
Track quality 100.0 %
Test CRC 1FE2C7CB
Copy CRC 1FE2C7CB
Track not present in AccurateRip database
Copy OK
Track 6
Filename D:\EAC\06 Visions.wav
Peak level 99.4 %
Extraction speed 3.8 X
Track quality 100.0 %
Test CRC 7E8F9603
Copy CRC 7E8F9603
Track not present in AccurateRip database
Copy OK
Track 7
Filename D:\EAC\07 In The Night.wav
Peak level 99.4 %
Extraction speed 4.3 X
Track quality 100.0 %
Test CRC DE7A27C5
Copy CRC DE7A27C5
Track not present in AccurateRip database
Copy OK
Track 8
Filename D:\EAC\08 A New Theme.wav
Peak level 99.4 %
Extraction speed 4.1 X
Track quality 100.0 %
Test CRC 28E4DD55
Copy CRC 28E4DD55
Track not present in AccurateRip database
Copy OK
Track 9
Filename D:\EAC\09 Dialogues.wav
Peak level 99.4 %
Extraction speed 4.4 X
Track quality 99.9 %
Test CRC 6222DE14
Copy CRC 6222DE14
Track not present in AccurateRip database
Copy OK
Track 10
Filename D:\EAC\10 Another Quiet Place.wav
Peak level 97.1 %
Extraction speed 4.9 X
Track quality 100.0 %
Test CRC 84E531AF
Copy CRC 84E531AF
Track not present in AccurateRip database
Copy OK
Track 11
Filename D:\EAC\11 Three Ways.wav
Peak level 50.2 %
Extraction speed 3.4 X
Track quality 99.9 %
Test CRC 08709E8F
Copy CRC 08709E8F
Track not present in AccurateRip database
Copy OK
Track 12
Filename D:\EAC\12 Sleeplessness.wav
Peak level 99.4 %
Extraction speed 5.0 X
Track quality 100.0 %
Test CRC E0D4F0F0
Copy CRC E0D4F0F0
Track not present in AccurateRip database
Copy OK
None of the tracks are present in the AccurateRip database
No errors occurred
End of status report
==== Log checksum 6DB056B79E27335277D7D72D9B7FDB681BA5B6372D0A124EF1E3E9F76EB1FDF5 ====
 
Содержание индексной карты (.CUE)
REM GENRE Jazz
REM DATE 2010
REM DISCID 9B0D6B0C
REM COMMENT "ExactAudioCopy v1.0b3"
PERFORMER "Sebastiano Meloni, Nicola Cossu, Roberto Dani"
TITLE "Dialogues"
FILE "01 Shadows.wav" WAVE
TRACK 01 AUDIO
TITLE "Shadows"
PERFORMER "Sebastiano Meloni, Nicola Cossu, Roberto Dani"
FLAGS DCP
INDEX 01 00:00:00
FILE "02 A Quiet Place.wav" WAVE
TRACK 02 AUDIO
TITLE "A Quiet Place"
PERFORMER "Sebastiano Meloni, Nicola Cossu, Roberto Dani"
FLAGS DCP
INDEX 01 00:00:00
FILE "03 Children.wav" WAVE
TRACK 03 AUDIO
TITLE "Children"
PERFORMER "Sebastiano Meloni, Nicola Cossu, Roberto Dani"
FLAGS DCP
INDEX 01 00:00:00
FILE "04 Waking Up.wav" WAVE
TRACK 04 AUDIO
TITLE "Waking Up"
PERFORMER "Sebastiano Meloni, Nicola Cossu, Roberto Dani"
FLAGS DCP
INDEX 01 00:00:00
FILE "05 Snowfall.wav" WAVE
TRACK 05 AUDIO
TITLE "Snowfall"
PERFORMER "Sebastiano Meloni, Nicola Cossu, Roberto Dani"
FLAGS DCP
INDEX 01 00:00:00
FILE "06 Visions.wav" WAVE
TRACK 06 AUDIO
TITLE "Visions"
PERFORMER "Sebastiano Meloni, Nicola Cossu, Roberto Dani"
FLAGS DCP
INDEX 01 00:00:00
FILE "07 In The Night.wav" WAVE
TRACK 07 AUDIO
TITLE "In The Night"
PERFORMER "Sebastiano Meloni, Nicola Cossu, Roberto Dani"
FLAGS DCP
INDEX 01 00:00:00
FILE "08 A New Theme.wav" WAVE
TRACK 08 AUDIO
TITLE "A New Theme"
PERFORMER "Sebastiano Meloni, Nicola Cossu, Roberto Dani"
FLAGS DCP
INDEX 01 00:00:00
FILE "09 Dialogues.wav" WAVE
TRACK 09 AUDIO
TITLE "Dialogues"
PERFORMER "Sebastiano Meloni, Nicola Cossu, Roberto Dani"
FLAGS DCP
INDEX 01 00:00:00
FILE "10 Another Quiet Place.wav" WAVE
TRACK 10 AUDIO
TITLE "Another Quiet Place"
PERFORMER "Sebastiano Meloni, Nicola Cossu, Roberto Dani"
FLAGS DCP
INDEX 01 00:00:00
FILE "11 Three Ways.wav" WAVE
TRACK 11 AUDIO
TITLE "Three Ways"
PERFORMER "Sebastiano Meloni, Nicola Cossu, Roberto Dani"
FLAGS DCP
INDEX 01 00:00:00
FILE "12 Sleeplessness.wav" WAVE
TRACK 12 AUDIO
TITLE "Sleeplessness"
PERFORMER "Sebastiano Meloni, Nicola Cossu, Roberto Dani"
FLAGS DCP
INDEX 01 00:00:00
Доп. информация: Recorded 30/31 March 2009 at Auditorium of the Conservatory, Cagliari, Italy
 
Об альбоме (сборнике)
Sebastiano Meloni says: "Our music is almost completely improvised, apart froma few themes.We try to uncover what music can express in itself, as well as the emotions we could convey with atonal free improvisations. We often decide which forms, sounds, timbres, or registers we are going to explore ahead of time. Our purpose is to make atonal improvisation a compositional language, which means strict rules and attention to form." Sebastiano Meloni has recorded a CD, "Improvised Pieces for Trio", with Tony Oxley drums and Adriano Orrù double bass. Roberto Dani recorded more than 60 CDs; he has played, among others, with Annette Peacock, Louis Sclavis, Kenny Wheeler and Dave Liebman.
 
Состав
Double Bass – Nicola Cossu
Drums – Roberto Dani
Piano – Sebastiano Meloni
23:18
326
Нет комментариев. Ваш будет первым!