Вы используете незарегистрированную версию компонента "Вкладки"!

Поиск

(Avant-Garde Jazz, Free Improvisation) [CD] Michael Moore, Peggy Lee, Dylan Van Der Schyff - Floating 1...2...3 - 2002, FLAC (tracks+.cue), lossless

(Avant-Garde Jazz, Free Improvisation) [CD] Michael Moore, Peggy Lee, Dylan Van Der Schyff - Floating 1...2...3 - 2002, FLAC (tracks+.cue), lossless
Треклист:
Michael Moore, Peggy Lee, Dylan Van Der Schyff / Floating 1...2...3
Жанр: Avant-Garde Jazz, Free Improvisation
Носитель: CD
Страна-производитель диска: Canada
Год издания: 2002
Издатель (лейбл): Spool
Номер по каталогу: SPL118 / LINE 18
Страна: US, Canada
Аудиокодек: FLAC (*.flac)
Тип рипа: tracks+.cue
Битрейт аудио: lossless
Продолжительность: 34:42
Источник (релизер): свой фирменный диск
Наличие сканов в содержимом раздачи:
Треклист:
1. untitled
2. untitled
3. untitled
 
Лог создания рипа
Exact Audio Copy V1.0 beta 3 from 29. August 2011
EAC extraction logfile from 12. June 2014, 19:17
Michael Moore, Peggy Lee, Dylan Van Der Schyff / Floating 1...2...3
Used drive : PIONEER DVD-RW DVR-115D Adapter: 0 ID: 0
Read mode : Secure
Utilize accurate stream : Yes
Defeat audio cache : Yes
Make use of C2 pointers : No
Read offset correction : 48
Overread into Lead-In and Lead-Out : No
Fill up missing offset samples with silence : Yes
Delete leading and trailing silent blocks : No
Null samples used in CRC calculations : Yes
Used interface : Installed external ASPI interface
Gap handling : Appended to previous track
Used output format : User Defined Encoder
Selected bitrate : 896 kBit/s
Quality : High
Add ID3 tag : No
Command line compressor : C:\Program Files\Exact Audio Copy\FLAC\FLAC.EXE
Additional command line options : -6 -V -T "ARTIST=%artist%" -T "TITLE=%title%" -T "ALBUM=%albumtitle%" -T "DATE=%year%" -T "TRACKNUMBER=%tracknr%" -T "GENRE=%genre%" -T "COMMENT=%comment%" -T "BAND=%albuminterpret%" -T "COMPOSER=%composer%" %haslyrics%--tag-from-file=LYRICS="%lyricsfile%"%haslyrics% -T "DISCNUMBER=%cdnumber%" -T "TOTALDISCS=%totalcds%" -T "TOTALTRACKS=%numtracks%" %hascover%--picture="%coverfile%"%hascover% %source% -o %dest%
TOC of the extracted CD
Track | Start | Length | Start sector | End sector
---------------------------------------------------------
1 | 0:00.00 | 9:32.57 | 0 | 42956
2 | 9:32.57 | 16:19.31 | 42957 | 116412
3 | 25:52.13 | 8:50.46 | 116413 | 156208
Track 1
Filename D:\zzz\01 - untitled.wav
Pre-gap length 0:00:02.00
Peak level 100.0 %
Extraction speed 4.9 X
Track quality 100.0 %
Test CRC ECB5659A
Copy CRC ECB5659A
Accurately ripped (confidence 3) [9F8C47DE] (AR v1)
Copy OK
Track 2
Filename D:\zzz\02 - untitled.wav
Peak level 100.0 %
Extraction speed 6.2 X
Track quality 99.9 %
Test CRC 245B7EFB
Copy CRC 245B7EFB
Accurately ripped (confidence 3) [CB1576D3] (AR v1)
Copy OK
Track 3
Filename D:\zzz\03 - untitled.wav
Peak level 100.0 %
Extraction speed 7.1 X
Track quality 100.0 %
Test CRC 394BFB41
Copy CRC 394BFB41
Accurately ripped (confidence 3) [A20F5D9C] (AR v1)
Copy OK
All tracks accurately ripped
No errors occurred
End of status report
==== Log checksum 668FCCCBF253EFDE370AE75AB81BCC9872CF4C30F188050AA4DD1EC77D537B75 ====
 
Содержание индексной карты (.CUE)
REM GENRE "Free Improvisation"
REM DATE 2002
REM DISCID 21082203
REM COMMENT "ExactAudioCopy v1.0b3"
PERFORMER "Michael Moore, Peggy Lee, Dylan Van Der Schyff"
TITLE "Floating 1...2...3"
FILE "01 - untitled.wav" WAVE
TRACK 01 AUDIO
TITLE "untitled"
PERFORMER "Michael Moore, Peggy Lee, Dylan Van Der Schyff"
INDEX 01 00:00:00
FILE "02 - untitled.wav" WAVE
TRACK 02 AUDIO
TITLE "untitled"
PERFORMER "Michael Moore, Peggy Lee, Dylan Van Der Schyff"
INDEX 01 00:00:00
FILE "03 - untitled.wav" WAVE
TRACK 03 AUDIO
TITLE "untitled"
PERFORMER "Michael Moore, Peggy Lee, Dylan Van Der Schyff"
INDEX 01 00:00:00
 
Лог проверки качества
d:\>d:\aucdtect -d/-m0 d:\zzz\*.wav
auCDtect: CD records authenticity detector, version 0.8.2
Copyright (c) 2004 Oleg Berngardt. All rights reserved.
Copyright (c) 2004 Alexander Djourik. All rights reserved.
------------------------------------------------------------
Processing file: [01. untitled.wav]
------------------------------------------------------------
This track looks like CDDA with probability 100%
------------------------------------------------------------
Processing file: [02. untitled.wav]
------------------------------------------------------------
This track looks like CDDA with probability 100%
------------------------------------------------------------
Processing file: [03. untitled.wav]
------------------------------------------------------------
This track looks like CDDA with probability 100%
------------------------------------------------------------
Final Conclusion:
------------------------------------------------------------
These tracks looks like CDDA with probability 100%
Доп. информация:
 
Album Info & JazzTimes.com Review
All music Moore/Lee/Van Der Schyff
Recorded live at The 2000 Vancouver International Jazz Festival (June 2000)
Recorded by Marc L'Esperance
Mastering/editing by Dylan Van Der Schyff
Photography by Stephen Scott Patterson
Layout by Amy Heggie
Thanks to Daniel Kernohan, Vern Weber, Ken Pickering and the Coastal Jazz and Blues Society.
Thanks also to Diane Kadota Arts Management.
Michael Moore is so thoroughly identified with New Dutch Swing that a periodic reminder that he is an American is in order. Though the California-born clarinetist/saxophonist is based in Amsterdam, he has also retained a Left Coast profile, often with the Vancouver International Jazz Festival functioning as a tour hub. Recorded at the VIJF in 2000, Floating 1...2...3 (Spool) finds Moore triangulating with cellist Peggy Lee and drummer Dylan van der Schyff, two of Canada's most formidable improvisers, in a LP-length set that glides from one texture-rich zone to another. Though their exchanges are often true to the album's title, there is also a subtle turbulence lurking at the edges of the music, one that occasionally seeps to the foreground. Moore's smoldering concluding clarinet statement is the album's most overt horn-led passage. For the bulk of the program, however, each instrument has equal sonic weight, which creates the sense that the music is constantly on the verge. This begs the question: Does it ultimately go anywhere? Yes: points unchartered.
 
Состав
Michael Moore: clarinet, alto saxophone
Peggy Lee: cello
Dylan Van Der Schyff: drums, etc.
По всем вопросам пишите личное сообщение пользователю M0p94ok.
03:32
139
Нет комментариев. Ваш будет первым!