Вы используете незарегистрированную версию компонента "Вкладки"!

Поиск

(Avant-Garde Jazz, Free Improvisation) [CD] Mats Gustafsson & Nu Ensemble (Joe McPhee, Agusti Fernandez, Paal Nilssen-Love, Peter Evans a.o) - Hidros 6: Knockin' (Dedicated to the music & lyrics of Little Richard) - 2015, FLAC (tracks+.cue),

(Avant-Garde Jazz, Free Improvisation) [CD] Mats Gustafsson & Nu Ensemble (Joe McPhee, Agusti Fernandez, Paal Nilssen-Love, Peter Evans a.o) - Hidros 6: Knockin' (Dedicated to the music & lyrics of Little Richard) - 2015, FLAC (tracks+.cue),
Треклист:
MATS GUSTAFSSON &
NU ENSEMBLE
KNOCKIN' HIDROS6 Жанр: Avant-Garde Jazz, Free Improvisation
Страна-производитель диска: Poland
Год издания: 2015
Издатель (лейбл): Not Two Records
Номер по каталогу: MW 924-2
Страна исполнителя (группы): International
Аудиокодек: FLAC (*.flac)
Тип рипа: tracks+.cue
Битрейт аудио: lossless
Продолжительность: 72:34
Источник (релизер): спасибо kivius
Наличие сканов: нет
Треклист:
1. Part 1
2. Part 2
3. Part 3
4. Part 4
 
Лог создания рипа
Exact Audio Copy V1.0 beta 4 from 7. December 2014
EAC extraction logfile from 2. November 2015, 13:37
Mats Gustafsson & Nu Ensemble / Hidros 6: Knockin'
Used drive : TSSTcorpCDDVDW SE-208DB Adapter: 1 ID: 1
Read mode : Secure
Utilize accurate stream : Yes
Defeat audio cache : Yes
Make use of C2 pointers : No
Read offset correction : 6
Overread into Lead-In and Lead-Out : No
Fill up missing offset samples with silence : Yes
Delete leading and trailing silent blocks : No
Null samples used in CRC calculations : Yes
Used interface : Native Win32 interface for Win NT & 2000
Gap handling : Appended to previous track
Used output format : User Defined Encoder
Selected bitrate : 1024 kBit/s
Quality : High
Add ID3 tag : No
Command line compressor : C:\Program Files (x86)\Exact Audio Copy\Flac\flac.exe
Additional command line options : -8 -V -T "ARTIST=%artist%" -T "TITLE=%title%" -T "ALBUM=%albumtitle%" -T "DATE=%year%" -T "TRACKNUMBER=%tracknr%" -T "GENRE=%genre%" -T "PERFORMER=%albuminterpret%" -T "COMPOSER=%composer%" %haslyrics%--tag-from-file=LYRICS="%lyricsfile%"%haslyrics% -T "ALBUMARTIST=%albumartist%" -T "DISCNUMBER=%cdnumber%" -T "TOTALDISCS=%totalcds%" -T "TOTALTRACKS=%numtracks%" -T "COMMENT=%comment%" %source% -o %dest%
TOC of the extracted CD
Track | Start | Length | Start sector | End sector
---------------------------------------------------------
1 | 0:00.00 | 21:07.68 | 0 | 95092
2 | 21:07.68 | 15:10.55 | 95093 | 163397
3 | 36:18.48 | 21:39.32 | 163398 | 260854
4 | 57:58.05 | 14:36.62 | 260855 | 326616
Track 1
Filename C:\Mats Gustafsson & Nu Ensemble - Hidros 6_Knockin (2015) [FLAC]\01 Part 1.wav
Pre-gap length 0:00:02.00
Peak level 96.8 %
Extraction speed 2.8 X
Track quality 99.9 %
Test CRC 11CE1FB7
Copy CRC 11CE1FB7
Track not present in AccurateRip database
Copy OK
Track 2
Filename C:\Mats Gustafsson & Nu Ensemble - Hidros 6_Knockin (2015) [FLAC]\02 Part 2.wav
Peak level 96.8 %
Extraction speed 3.7 X
Track quality 100.0 %
Test CRC 441155CB
Copy CRC 441155CB
Track not present in AccurateRip database
Copy OK
Track 3
Filename C:\Mats Gustafsson & Nu Ensemble - Hidros 6_Knockin (2015) [FLAC]\03 Part 3.wav
Peak level 96.8 %
Extraction speed 4.1 X
Track quality 99.9 %
Test CRC 43E9A7A7
Copy CRC 43E9A7A7
Track not present in AccurateRip database
Copy OK
Track 4
Filename C:\Mats Gustafsson & Nu Ensemble - Hidros 6_Knockin (2015) [FLAC]\04 Part 4.wav
Peak level 96.8 %
Extraction speed 2.7 X
Track quality 99.9 %
Test CRC 0BFE4B9E
Copy CRC 0BFE4B9E
Track not present in AccurateRip database
Copy OK
None of the tracks are present in the AccurateRip database
No errors occurred
End of status report
---- CUETools DB Plugin V2.1.4
[CTDB TOCID: slFT7Ft5JJgxNL1lxzo7H0or39I-] disk not present in database
Submit result: slFT7Ft5JJgxNL1lxzo7H0or39I- has been uploaded
==== Log checksum B72C155DE05CE8590CEB72BEC3BE049F93B18632504DD5AFBBC059FC59392BB2 ====
 
Содержание индексной карты (.CUE)
REM GENRE Jazz
REM DATE 2015
REM DISCID 2E110204
REM COMMENT "ExactAudioCopy v1.0b4"
PERFORMER "Mats Gustafsson & Nu Ensemble"
TITLE "Hidros 6: Knockin'"
FILE "01 Part 1.wav" WAVE
TRACK 01 AUDIO
TITLE "Part 1"
PERFORMER "Mats Gustafsson & Nu Ensemble"
INDEX 01 00:00:00
FILE "02 Part 2.wav" WAVE
TRACK 02 AUDIO
TITLE "Part 2"
PERFORMER "Mats Gustafsson & Nu Ensemble"
INDEX 01 00:00:00
FILE "03 Part 3.wav" WAVE
TRACK 03 AUDIO
TITLE "Part 3"
PERFORMER "Mats Gustafsson & Nu Ensemble"
INDEX 01 00:00:00
FILE "04 Part 4.wav" WAVE
TRACK 04 AUDIO
TITLE "Part 4"
PERFORMER "Mats Gustafsson & Nu Ensemble"
INDEX 01 00:00:00
 
Состав

Mats Gustafsson - slide, tenor, baritone & bass saxophones, electronics, piano mate and conduction
Peter Evans - trumpets
Joe McPhee - pocket trumpet, tenor saxophone, space organ
Christer Bothén - bass clarinet, guimbri
Agustí Fernández - piano, organ
Kjell Nordeson - vibes, drums, flexatone, glockenspiel
Dieb13 - turntables
Per-Åke Holmlander - tuba
Ingebrigt Håker Flaten - bass
Jon Rune Strøm - bass
Paal Nilssen-Love - drums
Stine Janvin Motland - vocals
По всем вопросам пишите личное сообщение пользователю M0p94ok.
16:36
270
Нет комментариев. Ваш будет первым!