Вы используете незарегистрированную версию компонента "Вкладки"!

Поиск

(Avant-Garde Jazz, Free Improvisation) [CD] Hornweb (Martin Archer, Charlie Collins, Derek Saw) - The Rosemary Songbook - 2006, FLAC (tracks+.cue), lossless

(Avant-Garde Jazz, Free Improvisation) [CD] Hornweb (Martin Archer, Charlie Collins, Derek Saw) - The Rosemary Songbook - 2006, FLAC (tracks+.cue), lossless
Треклист:
Hornweb / The Rosemary Songbook
Жанр: Avant-Garde Jazz, Free Improvisation
Носитель: CD
Страна-производитель диска: UK
Год издания: 2006
Издатель (лейбл): Discus Records
Номер по каталогу: Discus 26CD
Страна: UK
Аудиокодек: FLAC (*.flac)
Тип рипа: tracks+.cue
Битрейт аудио: lossless
Продолжительность: 64:12
Источник (релизер): свой фирменный диск
Наличие сканов в содержимом раздачи:
Треклист:
1. Lower Globe 3:05
2. Azim 2:38
3. Clip 2:49
4. I Never Thought About You 2:55
5. Terra Firma 2:33
6. Coast To Coast 2:37
7. The Unquestioned Answer 2:28
8. Song For Yusef Lateef 3:16
9. Sweet Spot 0:43
10. Song For Juan Tizol 3:00
11. David And Victoria 2:21
12. La Salle Street Strut 2:24
13. Hirajoshi 1:11
14. Drag 2:56
15. Tenser 2:41
16. U Packin? 3:19
17. Small Town Parade 2:39
18. Bamboula 1:41
19. Rabbit Cup 2:21
20. Engine Room Blues 3:09
21. Corpse Radical 2:42
22. Song For Rosemary 1:22
23. Sei A Mensch 2:52
24. Upper Globe 3:08
25. Song For Jackie McLean 3:12
 
Лог создания рипа
Exact Audio Copy V1.0 beta 3 from 29. August 2011
EAC extraction logfile from 8. May 2014, 19:19
Hornweb / The Rosemary Songbook
Used drive : PIONEER DVD-RW DVR-115D Adapter: 0 ID: 0
Read mode : Secure
Utilize accurate stream : Yes
Defeat audio cache : Yes
Make use of C2 pointers : No
Read offset correction : 48
Overread into Lead-In and Lead-Out : No
Fill up missing offset samples with silence : Yes
Delete leading and trailing silent blocks : No
Null samples used in CRC calculations : Yes
Used interface : Installed external ASPI interface
Gap handling : Appended to previous track
Used output format : User Defined Encoder
Selected bitrate : 896 kBit/s
Quality : High
Add ID3 tag : No
Command line compressor : C:\Program Files\Exact Audio Copy\FLAC\FLAC.EXE
Additional command line options : -6 -V -T "ARTIST=%artist%" -T "TITLE=%title%" -T "ALBUM=%albumtitle%" -T "DATE=%year%" -T "TRACKNUMBER=%tracknr%" -T "GENRE=%genre%" -T "COMMENT=%comment%" -T "BAND=%albuminterpret%" -T "COMPOSER=%composer%" %haslyrics%--tag-from-file=LYRICS="%lyricsfile%"%haslyrics% -T "DISCNUMBER=%cdnumber%" -T "TOTALDISCS=%totalcds%" -T "TOTALTRACKS=%numtracks%" %hascover%--picture="%coverfile%"%hascover% %source% -o %dest%
TOC of the extracted CD
Track | Start | Length | Start sector | End sector
---------------------------------------------------------
1 | 0:00.00 | 3:05.35 | 0 | 13909
2 | 3:05.35 | 2:38.12 | 13910 | 25771
3 | 5:43.47 | 2:49.31 | 25772 | 38477
4 | 8:33.03 | 2:55.26 | 38478 | 51628
5 | 11:28.29 | 2:33.04 | 51629 | 63107
6 | 14:01.33 | 2:37.28 | 63108 | 74910
7 | 16:38.61 | 2:28.31 | 74911 | 86041
8 | 19:07.17 | 3:16.09 | 86042 | 100750
9 | 22:23.26 | 0:43.18 | 100751 | 103993
10 | 23:06.44 | 3:00.42 | 103994 | 117535
11 | 26:07.11 | 2:21.58 | 117536 | 128168
12 | 28:28.69 | 2:24.71 | 128169 | 139039
13 | 30:53.65 | 1:11.42 | 139040 | 144406
14 | 32:05.32 | 2:56.56 | 144407 | 157662
15 | 35:02.13 | 2:41.59 | 157663 | 169796
16 | 37:43.72 | 3:19.06 | 169797 | 184727
17 | 41:03.03 | 2:39.62 | 184728 | 196714
18 | 43:42.65 | 1:41.11 | 196715 | 204300
19 | 45:24.01 | 2:21.01 | 204301 | 214876
20 | 47:45.02 | 3:09.00 | 214877 | 229051
21 | 50:54.02 | 2:42.01 | 229052 | 241202
22 | 53:36.03 | 1:22.05 | 241203 | 247357
23 | 54:58.08 | 2:52.47 | 247358 | 260304
24 | 57:50.55 | 3:08.65 | 260305 | 274469
25 | 60:59.45 | 3:12.65 | 274470 | 288934
Track 1
Filename D:\zzz\01 - Lower Globe.wav
Pre-gap length 0:00:02.00
Peak level 98.7 %
Extraction speed 4.0 X
Track quality 100.0 %
Test CRC BE223117
Copy CRC BE223117
Track not present in AccurateRip database
Copy OK
Track 2
Filename D:\zzz\02 - Azim.wav
Peak level 99.9 %
Extraction speed 4.2 X
Track quality 100.0 %
Test CRC FF3D54E9
Copy CRC FF3D54E9
Track not present in AccurateRip database
Copy OK
Track 3
Filename D:\zzz\03 - Clip.wav
Peak level 98.3 %
Extraction speed 4.5 X
Track quality 100.0 %
Test CRC DB380558
Copy CRC DB380558
Track not present in AccurateRip database
Copy OK
Track 4
Filename D:\zzz\04 - I Never Thought About You.wav
Peak level 97.7 %
Extraction speed 4.8 X
Track quality 100.0 %
Test CRC CB8E9F00
Copy CRC CB8E9F00
Track not present in AccurateRip database
Copy OK
Track 5
Filename D:\zzz\05 - Terra Firma.wav
Peak level 98.9 %
Extraction speed 4.2 X
Track quality 99.9 %
Test CRC AC620AFE
Copy CRC AC620AFE
Track not present in AccurateRip database
Copy OK
Track 6
Filename D:\zzz\06 - Coast To Coast.wav
Peak level 98.3 %
Extraction speed 4.4 X
Track quality 99.9 %
Test CRC 00250D98
Copy CRC 00250D98
Track not present in AccurateRip database
Copy OK
Track 7
Filename D:\zzz\07 - The Unquestioned Answer.wav
Peak level 98.1 %
Extraction speed 4.4 X
Track quality 99.9 %
Test CRC FFAABAD3
Copy CRC FFAABAD3
Track not present in AccurateRip database
Copy OK
Track 8
Filename D:\zzz\08 - Song For Yusef Lateef.wav
Peak level 98.8 %
Extraction speed 5.8 X
Track quality 100.0 %
Test CRC EC269B74
Copy CRC EC269B74
Track not present in AccurateRip database
Copy OK
Track 9
Filename D:\zzz\09 - Sweet Spot.wav
Peak level 94.5 %
Extraction speed 3.8 X
Track quality 100.0 %
Test CRC 4E599748
Copy CRC 4E599748
Track not present in AccurateRip database
Copy OK
Track 10
Filename D:\zzz\10 - Song For Juan Tizol.wav
Peak level 99.9 %
Extraction speed 5.1 X
Track quality 99.9 %
Test CRC E06AD079
Copy CRC E06AD079
Track not present in AccurateRip database
Copy OK
Track 11
Filename D:\zzz\11 - David And Victoria.wav
Peak level 97.8 %
Extraction speed 4.9 X
Track quality 99.9 %
Test CRC 20AF9789
Copy CRC 20AF9789
Track not present in AccurateRip database
Copy OK
Track 12
Filename D:\zzz\12 - La Salle Street Strut.wav
Peak level 99.9 %
Extraction speed 6.1 X
Track quality 100.0 %
Test CRC 27FE5CB3
Copy CRC 27FE5CB3
Track not present in AccurateRip database
Copy OK
Track 13
Filename D:\zzz\13 - Hirajoshi.wav
Peak level 94.5 %
Extraction speed 5.1 X
Track quality 100.0 %
Test CRC 7F1E80B2
Copy CRC 7F1E80B2
Track not present in AccurateRip database
Copy OK
Track 14
Filename D:\zzz\14 - Drag.wav
Peak level 98.8 %
Extraction speed 6.5 X
Track quality 100.0 %
Test CRC 50D5E005
Copy CRC 50D5E005
Track not present in AccurateRip database
Copy OK
Track 15
Filename D:\zzz\15 - Tenser.wav
Peak level 98.3 %
Extraction speed 6.5 X
Track quality 100.0 %
Test CRC 6271A0C1
Copy CRC 6271A0C1
Track not present in AccurateRip database
Copy OK
Track 16
Filename D:\zzz\16 - U Packin.wav
Peak level 98.0 %
Extraction speed 7.0 X
Track quality 100.0 %
Test CRC 52048123
Copy CRC 52048123
Track not present in AccurateRip database
Copy OK
Track 17
Filename D:\zzz\17 - Small Town Parade.wav
Peak level 98.0 %
Extraction speed 6.8 X
Track quality 100.0 %
Test CRC D4AE13BB
Copy CRC D4AE13BB
Track not present in AccurateRip database
Copy OK
Track 18
Filename D:\zzz\18 - Bamboula.wav
Peak level 99.9 %
Extraction speed 6.3 X
Track quality 100.0 %
Test CRC 76B80980
Copy CRC 76B80980
Track not present in AccurateRip database
Copy OK
Track 19
Filename D:\zzz\19 - Rabbit Cup.wav
Peak level 98.9 %
Extraction speed 6.8 X
Track quality 100.0 %
Test CRC 1F0FB176
Copy CRC 1F0FB176
Track not present in AccurateRip database
Copy OK
Track 20
Filename D:\zzz\20 - Engine Room Blues.wav
Peak level 98.6 %
Extraction speed 7.4 X
Track quality 100.0 %
Test CRC 3EFB396A
Copy CRC 3EFB396A
Track not present in AccurateRip database
Copy OK
Track 21
Filename D:\zzz\21 - Corpse Radical.wav
Peak level 99.9 %
Extraction speed 6.3 X
Track quality 99.9 %
Test CRC 34002FC2
Copy CRC 34002FC2
Track not present in AccurateRip database
Copy OK
Track 22
Filename D:\zzz\22 - Song For Rosemary.wav
Peak level 63.2 %
Extraction speed 6.2 X
Track quality 100.0 %
Test CRC A751A106
Copy CRC A751A106
Track not present in AccurateRip database
Copy OK
Track 23
Filename D:\zzz\23 - Sei A Mensch.wav
Peak level 99.9 %
Extraction speed 6.6 X
Track quality 99.9 %
Test CRC 6613B581
Copy CRC 6613B581
Track not present in AccurateRip database
Copy OK
Track 24
Filename D:\zzz\24 - Upper Globe.wav
Peak level 99.9 %
Extraction speed 6.8 X
Track quality 99.9 %
Test CRC A4C860C3
Copy CRC A4C860C3
Track not present in AccurateRip database
Copy OK
Track 25
Filename D:\zzz\25 - Song For Jackie McLean.wav
Peak level 93.1 %
Extraction speed 8.1 X
Track quality 100.0 %
Test CRC 660FA772
Copy CRC 660FA772
Track not present in AccurateRip database
Copy OK
None of the tracks are present in the AccurateRip database
No errors occurred
End of status report
==== Log checksum FD8A4F5BE683266B118309B633BCFCD2FAF9C47FD58D848575450DE09DAE2961 ====
 
Содержание индексной карты (.CUE)
REM GENRE "Avant-Garde Jazz"
REM DATE 2006
REM DISCID 5C0F0C19
REM COMMENT "ExactAudioCopy v1.0b3"
PERFORMER "Hornweb"
TITLE "The Rosemary Songbook"
FILE "01 - Lower Globe.wav" WAVE
TRACK 01 AUDIO
TITLE "Lower Globe"
PERFORMER "Hornweb"
FLAGS DCP
INDEX 01 00:00:00
FILE "02 - Azim.wav" WAVE
TRACK 02 AUDIO
TITLE "Azim"
PERFORMER "Hornweb"
FLAGS DCP
INDEX 01 00:00:00
FILE "03 - Clip.wav" WAVE
TRACK 03 AUDIO
TITLE "Clip"
PERFORMER "Hornweb"
FLAGS DCP
INDEX 01 00:00:00
FILE "04 - I Never Thought About You.wav" WAVE
TRACK 04 AUDIO
TITLE "I Never Thought About You"
PERFORMER "Hornweb"
FLAGS DCP
INDEX 01 00:00:00
FILE "05 - Terra Firma.wav" WAVE
TRACK 05 AUDIO
TITLE "Terra Firma"
PERFORMER "Hornweb"
FLAGS DCP
INDEX 01 00:00:00
FILE "06 - Coast To Coast.wav" WAVE
TRACK 06 AUDIO
TITLE "Coast To Coast"
PERFORMER "Hornweb"
FLAGS DCP
INDEX 01 00:00:00
FILE "07 - The Unquestioned Answer.wav" WAVE
TRACK 07 AUDIO
TITLE "The Unquestioned Answer"
PERFORMER "Hornweb"
FLAGS DCP
INDEX 01 00:00:00
FILE "08 - Song For Yusef Lateef.wav" WAVE
TRACK 08 AUDIO
TITLE "Song For Yusef Lateef"
PERFORMER "Hornweb"
FLAGS DCP
INDEX 01 00:00:00
FILE "09 - Sweet Spot.wav" WAVE
TRACK 09 AUDIO
TITLE "Sweet Spot"
PERFORMER "Hornweb"
FLAGS DCP
INDEX 01 00:00:00
FILE "10 - Song For Juan Tizol.wav" WAVE
TRACK 10 AUDIO
TITLE "Song For Juan Tizol"
PERFORMER "Hornweb"
FLAGS DCP
INDEX 01 00:00:00
FILE "11 - David And Victoria.wav" WAVE
TRACK 11 AUDIO
TITLE "David And Victoria"
PERFORMER "Hornweb"
FLAGS DCP
INDEX 01 00:00:00
FILE "12 - La Salle Street Strut.wav" WAVE
TRACK 12 AUDIO
TITLE "La Salle Street Strut"
PERFORMER "Hornweb"
FLAGS DCP
INDEX 01 00:00:00
FILE "13 - Hirajoshi.wav" WAVE
TRACK 13 AUDIO
TITLE "Hirajoshi"
PERFORMER "Hornweb"
FLAGS DCP
INDEX 01 00:00:00
FILE "14 - Drag.wav" WAVE
TRACK 14 AUDIO
TITLE "Drag"
PERFORMER "Hornweb"
FLAGS DCP
INDEX 01 00:00:00
FILE "15 - Tenser.wav" WAVE
TRACK 15 AUDIO
TITLE "Tenser"
PERFORMER "Hornweb"
FLAGS DCP
INDEX 01 00:00:00
FILE "16 - U Packin.wav" WAVE
TRACK 16 AUDIO
TITLE "U Packin?"
PERFORMER "Hornweb"
FLAGS DCP
INDEX 01 00:00:00
FILE "17 - Small Town Parade.wav" WAVE
TRACK 17 AUDIO
TITLE "Small Town Parade"
PERFORMER "Hornweb"
FLAGS DCP
INDEX 01 00:00:00
FILE "18 - Bamboula.wav" WAVE
TRACK 18 AUDIO
TITLE "Bamboula"
PERFORMER "Hornweb"
FLAGS DCP
INDEX 01 00:00:00
FILE "19 - Rabbit Cup.wav" WAVE
TRACK 19 AUDIO
TITLE "Rabbit Cup"
PERFORMER "Hornweb"
FLAGS DCP
INDEX 01 00:00:00
FILE "20 - Engine Room Blues.wav" WAVE
TRACK 20 AUDIO
TITLE "Engine Room Blues"
PERFORMER "Hornweb"
FLAGS DCP
INDEX 01 00:00:00
FILE "21 - Corpse Radical.wav" WAVE
TRACK 21 AUDIO
TITLE "Corpse Radical"
PERFORMER "Hornweb"
FLAGS DCP
INDEX 01 00:00:00
FILE "22 - Song For Rosemary.wav" WAVE
TRACK 22 AUDIO
TITLE "Song For Rosemary"
PERFORMER "Hornweb"
FLAGS DCP
INDEX 01 00:00:00
FILE "23 - Sei A Mensch.wav" WAVE
TRACK 23 AUDIO
TITLE "Sei A Mensch"
PERFORMER "Hornweb"
FLAGS DCP
INDEX 01 00:00:00
FILE "24 - Upper Globe.wav" WAVE
TRACK 24 AUDIO
TITLE "Upper Globe"
PERFORMER "Hornweb"
FLAGS DCP
INDEX 01 00:00:00
FILE "25 - Song For Jackie McLean.wav" WAVE
TRACK 25 AUDIO
TITLE "Song For Jackie McLean"
PERFORMER "Hornweb"
FLAGS DCP
INDEX 01 00:00:00
 
Лог проверки качества
d:\>d:\aucdtect -d/-m0 d:\zzz\*.wav
auCDtect: CD records authenticity detector, version 0.8.2
Copyright (c) 2004 Oleg Berngardt. All rights reserved.
Copyright (c) 2004 Alexander Djourik. All rights reserved.
------------------------------------------------------------
Processing file: [01. Lower Globe.wav]
------------------------------------------------------------
This track looks like CDDA with probability 100%
------------------------------------------------------------
Processing file: [02. Azim.wav]
------------------------------------------------------------
This track looks like CDDA with probability 100%
------------------------------------------------------------
Processing file: [03. Clip.wav]
------------------------------------------------------------
This track looks like CDDA with probability 100%
------------------------------------------------------------
Processing file: [04. I Never Thought About You.wav]
------------------------------------------------------------
This track looks like CDDA with probability 100%
------------------------------------------------------------
Processing file: [05. Terra Firma.wav]
------------------------------------------------------------
This track looks like CDDA with probability 99%
------------------------------------------------------------
Processing file: [06. Coast To Coast.wav]
------------------------------------------------------------
This track looks like CDDA with probability 100%
------------------------------------------------------------
Processing file: [07. The Unquestioned Answer.wav]
------------------------------------------------------------
This track looks like CDDA with probability 100%
------------------------------------------------------------
Processing file: [08. Song For Yusef Lateef.wav]
------------------------------------------------------------
This track looks like CDDA with probability 100%
------------------------------------------------------------
Processing file: [09. Sweet Spot.wav]
------------------------------------------------------------
This track looks like CDDA with probability 100%
------------------------------------------------------------
Processing file: [10. Song For Juan Tizol.wav]
------------------------------------------------------------
This track looks like CDDA with probability 100%
------------------------------------------------------------
Processing file: [11. David And Victoria.wav]
------------------------------------------------------------
This track looks like CDDA with probability 100%
------------------------------------------------------------
Processing file: [12. La Salle Street Strut.wav]
------------------------------------------------------------
This track looks like CDDA with probability 100%
------------------------------------------------------------
Processing file: [13. Hirajoshi.wav]
------------------------------------------------------------
This track looks like CDDA with probability 99%
------------------------------------------------------------
Processing file: [14. Drag.wav]
------------------------------------------------------------
This track looks like CDDA with probability 100%
------------------------------------------------------------
Processing file: [15. Tenser.wav]
------------------------------------------------------------
This track looks like CDDA with probability 100%
------------------------------------------------------------
Processing file: [16. U Packin.wav]
------------------------------------------------------------
This track looks like CDDA with probability 62%
------------------------------------------------------------
Processing file: [17. Small Town Parade.wav]
------------------------------------------------------------
This track looks like CDDA with probability 100%
------------------------------------------------------------
Processing file: [18. Bamboula.wav]
------------------------------------------------------------
This track looks like CDDA with probability 100%
------------------------------------------------------------
Processing file: [19. Rabbit Cup.wav]
------------------------------------------------------------
This track looks like CDDA with probability 100%
------------------------------------------------------------
Processing file: [20. Engine Room Blues.wav]
------------------------------------------------------------
This track looks like CDDA with probability 99%
------------------------------------------------------------
Processing file: [21. Corpse Radical.wav]
------------------------------------------------------------
This track looks like CDDA with probability 100%
------------------------------------------------------------
Processing file: [22. Song For Rosemary.wav]
------------------------------------------------------------
This track looks like CDDA with probability 100%
------------------------------------------------------------
Processing file: [23. Sei A Mensch.wav]
------------------------------------------------------------
This track looks like CDDA with probability 100%
------------------------------------------------------------
Processing file: [24. Upper Globe.wav]
------------------------------------------------------------
This track looks like CDDA with probability 100%
------------------------------------------------------------
Processing file: [25. Song For Jackie McLean.wav]
------------------------------------------------------------
This track looks like CDDA with probability 100%
------------------------------------------------------------
Final Conclusion:
------------------------------------------------------------
These tracks looks like CDDA with probability 100%
Доп. информация:
 
Album Info & Review
(Archer) - 1,9,10,20,24
(Collins) - 2,22
(Hornweb) - 3,7,14,15,19,21
(Archer/Collins) - 4,6,8,11,16
(Saw) - 5,12,13,18,23,25
(Archer/Saw) - 17
We have spent a lot of time putting these tracks into exactly the right order, but you may wish to set your player to random to hear a different perspective.
Recorded July 2005 - July 2006, Telecottage and Sound Kitchen Studios, Sheffield
Produced by Charlie Collins
Mastered by Ian Stead
Clay figures photographed by Tricia Jasnoch
Design and layout by Herve Perez
Together again for the first time, the 25-year-old Hornweb band reunites for another recording session after a hiatus of more than a dozen years. The reason why this memorable 25 [!] track CD is a debut as well as a reunion is that the group, which was founded by Sheffield-based Martin Archer and Derek Saw, has gone through many permutations since its first LP in 1983. An all-horn - mostly a saxophone quartet, then with trumpet or trombone added - aggregation until it disbanded 10 years later, Hornweb is now a trio. Yet there are probably more and different instruments heard on The Rosemary Songbook than on any of the band's previous discs. During the years since 1993, Archer has concentrated on electronics-based studio work and on this CD brings along the software instruments and loops he now favors. Happily he has also been playing more acoustically in the past few years, so his instrumental collection - sopranino, alto and baritone saxophones, bass and Bb clarinets, recorders, violin and hand drums - is featured as well. During the same period, Saw has expanded his horn collection as well and now plays trumpet, tenor horn and tuba as well as tenor and baritone saxophones. The third member of Hornweb - who serendipitously enough was a guest on the band's first LP - is Charlie Collins. But Collins who usually plays reeds in bands with multi-string player John Jasnoch, here concentrates on vibraphone, waterphone, mbira, marimbula, darabuka, tar, mazhar, bendir, desk bells and metal percussion. The Rosemary Songbook's challenge, and ultimately the responsibility for its accomplishment, as well as some frustration, was to limit the compositions and improvisations to around three minutes each. With the same number of tracks as the years of marriage as honorees John and Rosemary Coldwell - hence the title - the three musicians may have spread themselves - and the sounds - a little too thin. As good as some work here is, about half as many tracks would have given the music more room in which to develop. That said there are several excellent miniatures that are enjoyable from beginning to end, especially when a variety of instruments are brought into play at the same time. Especially notable are the three jazz-musician tributes: "Song for Yusef Lateef", "Song for Juan Tizol" and "Song for Jackie McLean". While the last shows that Archer has lost none of his facility on alto saxophone with a long-lined legato solo; and the first use both the exotically rhythmic mbira plucks and a contrapuntal face off among trumpet grace notes, saxophone obbligato and bass clarinet buzz to highlight Lateef's hard bop and African interests, "Juan Tizol" is the masterful mix. Here African and Middle-Eastern percussion such as mbira, marimbula and darabuka take on Afro-Cuban characteristics, while above this friction and concussive slaps, are the mellow tones of low-pitched clarinet, fluttering trumpet and steadying percussion. Are Hornweb's members replicating themselves as the Ellington band's trombonist - Tizol - clarinetist Barney Bigard and flashy drummer Sonny Payne? Another, perhaps inadvertent, early-jazz reference may be that Collins' vibraphone textures, which is a constant on the majority of the pieces, are used in a strictly rhythmic function, much closer to Lionel Hampton's style, then any of the vibists who followed him. Ornamental, the shivery textures from the keys provide an ostinato bottom as well as decoration for many of the horn sounds, which range from squeaky reed bites and tongue slaps to plunger tones or waves of triplets from the trumpeter. Referencing New Orleans parades as well as European marches, the three produce lines like "La Salle Street Strut", a jolly romp for hocketing tuba, ornamental vibe rasps and a diminuendo ending from the clarinet; and "Terra Firma", a friendly adagio march featuring a chase in double counterpoint between ringing percussion and honking baritone sax. Creations like those and "Small Town Parade", which intersect lowing bass clarinet and darabuka thumps, suggest that the foot-lifting procession begins in the Crescent City or the Casbah and ends up in Sheffield. Then there's "Sei A Mensch", an Arabic-tinged, Klezmer-like tune with a German title, willowy, coloratura-register clarinet twirls, pitter-pattering drum beats and freylach-style trumpet work. Suspicion exists that the "loops and software instruments" in Archer's arsenal are extending and adding supplementary timbres to the acoustic horn and percussion lines. Meanwhile there are the free-form, irregularly situated multi-saxophone tongue slaps and snorts on "Drag" that climax in protracted coarse textures. Rather than being a drag, the performance suggests that allowing a wider range and greater scope to the improvisers would have produced an even better CD. As it stands the disc proves conclusively that the members of the newly constituted trio have no problem singing from the same songbook. Now, though, they should escalate from songs to longer forms. - Ken Waxman - Jazz Word
 
Состав
Martin Archer: sopranino, alto and baritone saxophones, Bb and bass clarinets, bass harmonica, recorders, software instruments, loops, violin
Charlie Collins: vibraphone, waterphone, mbira, marimbula, darabuka, tar, mazhar, bendir, desk bells, metal percussion
Derek Saw: trumpet, tenor horn, tuba, tenor and baritone saxophones
По всем вопросам пишите личное сообщение пользователю M0p94ok.
02:41
190
Нет комментариев. Ваш будет первым!