Поиск

(Avant-Garde Jazz, Free Improvisation) [CD] Frank Gratkowski Project (Tobias Delius, Herb Robertson, Wolter Wierbos, Dieter Manderscheid, Wilbert DeJoode, Gerry Hemingway, Michael Vatcher) - Loft Exil V - 2004 (2cd), FLAC (tracks+.cue), lossless

(Avant-Garde Jazz, Free Improvisation) [CD] Frank Gratkowski Project (Tobias Delius, Herb Robertson, Wolter Wierbos, Dieter Manderscheid, Wilbert DeJoode, Gerry Hemingway, Michael Vatcher) - Loft Exil V - 2004 (2cd), FLAC (tracks+.cue), lossless
Frank Gratkowski Project / Loft Exil V
Жанр: Avant-Garde Jazz, Free Improvisation
Носитель: CD
Страна-производитель диска (релиза): UK
Год издания: 2004
Издатель (лейбл): Leo Records
Номер по каталогу: CD LR 410/411
Аудиокодек: FLAC (*.flac)
Тип рипа: tracks+.cue
Битрейт аудио: lossless
Продолжительность: 63:50+74:22
Источник (релизер): cd
Наличие сканов в содержимом раздачи: нет
Треклист:
CD 1
1. The Morning Beckons 9:02
2. The Morning Beckons 4:45
3. The Morning Beckons 5:27
4. The Morning Beckons 4:01
5. The Morning Beckons 4:09
6. The Morning Beckons 3:34
7. The Morning Beckons 4:51
8. The Morning Beckons 3:29
9. The Morning Beckons 13:25
10. The Morning Beckons 11:08
CD 2
1. There Could I Marvel 6:49
2. There Could I Marvel 8:26
3. There Could I Marvel 3:25
4. There Could I Marvel 10:20
5. There Could I Marvel 12:04
6. And The Mystery Sang Alive 10:37
7. And The Mystery Sang Alive 12:56
8. Out of the Loom 9’45
 
Лог создания рипа
Exact Audio Copy V1.0 beta 3 from 29. August 2011
EAC extraction logfile from 8. October 2016, 12:19
Frank Gratkowski Project / Loft Exil V
Used drive : ASUS DRW-24F1ST a Adapter: 0 ID: 0
Read mode : Secure
Utilize accurate stream : Yes
Defeat audio cache : Yes
Make use of C2 pointers : No
Read offset correction : 6
Overread into Lead-In and Lead-Out : No
Fill up missing offset samples with silence : Yes
Delete leading and trailing silent blocks : No
Null samples used in CRC calculations : Yes
Used interface : Native Win32 interface for Win NT & 2000
Gap handling : Appended to previous track
Used output format : User Defined Encoder
Selected bitrate : 320 kBit/s
Quality : High
Add ID3 tag : No
Command line compressor : D:\Programs\Exact Audio Copy\Flac\flac.exe
Additional command line options : -V -8 -T "Genre=%genre%" -T "Artist=%artist%" -T "Title=%title%" -T "Album=%albumtitle%" -T "Date=%year%" -T "Tracknumber=%tracknr%" -T "Comment=%comment%" %source%
TOC of the extracted CD
Track | Start | Length | Start sector | End sector
---------------------------------------------------------
1 | 0:00.00 | 9:02.13 | 0 | 40662
2 | 9:02.13 | 4:44.47 | 40663 | 62009
3 | 13:46.60 | 5:26.62 | 62010 | 86521
4 | 19:13.47 | 4:00.48 | 86522 | 104569
5 | 23:14.20 | 4:09.03 | 104570 | 123247
6 | 27:23.23 | 3:33.49 | 123248 | 139271
7 | 30:56.72 | 4:51.22 | 139272 | 161118
8 | 35:48.19 | 3:28.44 | 161119 | 176762
9 | 39:16.63 | 13:24.59 | 176763 | 237121
10 | 52:41.47 | 11:08.28 | 237122 | 287249
Track 1
Filename D:\EAC\01 The Morning Beckons.wav
Pre-gap length 0:00:02.00
Peak level 98.8 %
Extraction speed 1.9 X
Track quality 99.9 %
Test CRC 681D1762
Copy CRC 681D1762
Cannot be verified as accurate (confidence 4) [3472546D], AccurateRip returned [4D978826] (AR v2)
Copy OK
Track 2
Filename D:\EAC\02 The Morning Beckons.wav
Peak level 98.8 %
Extraction speed 2.2 X
Track quality 100.0 %
Test CRC 06C91F10
Copy CRC 06C91F10
Cannot be verified as accurate (confidence 4) [22CE8598], AccurateRip returned [8994B8AC] (AR v2)
Copy OK
Track 3
Filename D:\EAC\03 The Morning Beckons.wav
Peak level 98.8 %
Extraction speed 2.4 X
Track quality 100.0 %
Test CRC B613975B
Copy CRC B613975B
Cannot be verified as accurate (confidence 4) [B3328740], AccurateRip returned [E849E426] (AR v2)
Copy OK
Track 4
Filename D:\EAC\04 The Morning Beckons.wav
Peak level 98.8 %
Extraction speed 2.5 X
Track quality 100.0 %
Test CRC 99F77600
Copy CRC 99F77600
Cannot be verified as accurate (confidence 4) [0FC7E3E0], AccurateRip returned [AAC71E23] (AR v2)
Copy OK
Track 5
Filename D:\EAC\05 The Morning Beckons.wav
Peak level 98.8 %
Extraction speed 2.6 X
Track quality 100.0 %
Test CRC EB647C28
Copy CRC EB647C28
Cannot be verified as accurate (confidence 4) [ED7AF434], AccurateRip returned [AFC945DE] (AR v2)
Copy OK
Track 6
Filename D:\EAC\06 The Morning Beckons.wav
Peak level 98.8 %
Extraction speed 2.7 X
Track quality 100.0 %
Test CRC 0B26BA6D
Copy CRC 0B26BA6D
Cannot be verified as accurate (confidence 4) [D8E69EBD], AccurateRip returned [F366498B] (AR v2)
Copy OK
Track 7
Filename D:\EAC\07 The Morning Beckons.wav
Peak level 90.1 %
Extraction speed 2.9 X
Track quality 100.0 %
Test CRC 3BF02BB8
Copy CRC 3BF02BB8
Cannot be verified as accurate (confidence 4) [E93CAAC6], AccurateRip returned [38A94F38] (AR v2)
Copy OK
Track 8
Filename D:\EAC\08 The Morning Beckons.wav
Peak level 85.8 %
Extraction speed 2.9 X
Track quality 100.0 %
Test CRC 72648784
Copy CRC 72648784
Cannot be verified as accurate (confidence 4) [E638DBCE], AccurateRip returned [D11BC792] (AR v2)
Copy OK
Track 9
Filename D:\EAC\09 The Morning Beckons.wav
Peak level 98.8 %
Extraction speed 3.5 X
Track quality 100.0 %
Test CRC AD9EE597
Copy CRC AD9EE597
Cannot be verified as accurate (confidence 4) [7080084D], AccurateRip returned [5EF9AA85] (AR v2)
Copy OK
Track 10
Filename D:\EAC\10 The Morning Beckons.wav
Peak level 98.8 %
Extraction speed 3.8 X
Track quality 100.0 %
Test CRC F484F8EE
Copy CRC F484F8EE
Cannot be verified as accurate (confidence 4) [D3AF227E], AccurateRip returned [CD53C663] (AR v2)
Copy OK
No tracks could be verified as accurate
You may have a different pressing from the one(s) in the database
No errors occurred
End of status report
==== Log checksum 0E08CC58CF832970515D0A1649E06E73F217E5875930794E669BD8297DFBEC24 ====
______________________________________________________________________________________________________________________________________________________________________________
Exact Audio Copy V1.0 beta 3 from 29. August 2011
EAC extraction logfile from 8. October 2016, 13:03
Frank Gratkowski Project / Loft Exil V
Used drive : ASUS DRW-24F1ST a Adapter: 0 ID: 0
Read mode : Secure
Utilize accurate stream : Yes
Defeat audio cache : Yes
Make use of C2 pointers : No
Read offset correction : 6
Overread into Lead-In and Lead-Out : No
Fill up missing offset samples with silence : Yes
Delete leading and trailing silent blocks : No
Null samples used in CRC calculations : Yes
Used interface : Native Win32 interface for Win NT & 2000
Gap handling : Appended to previous track
Used output format : User Defined Encoder
Selected bitrate : 320 kBit/s
Quality : High
Add ID3 tag : No
Command line compressor : D:\Programs\Exact Audio Copy\Flac\flac.exe
Additional command line options : -V -8 -T "Genre=%genre%" -T "Artist=%artist%" -T "Title=%title%" -T "Album=%albumtitle%" -T "Date=%year%" -T "Tracknumber=%tracknr%" -T "Comment=%comment%" %source%
TOC of the extracted CD
Track | Start | Length | Start sector | End sector
---------------------------------------------------------
1 | 0:00.00 | 6:49.10 | 0 | 30684
2 | 6:49.10 | 8:25.54 | 30685 | 68613
3 | 15:14.64 | 3:25.25 | 68614 | 84013
4 | 18:40.14 | 10:20.11 | 84014 | 130524
5 | 29:00.25 | 12:04.32 | 130525 | 184856
6 | 41:04.57 | 10:36.54 | 184857 | 232610
7 | 51:41.36 | 12:56.03 | 232611 | 290813
8 | 64:37.39 | 9:45.19 | 290814 | 334707
Track 1
Filename D:\EAC\01 There Could I Marvel.wav
Pre-gap length 0:00:02.00
Peak level 98.8 %
Extraction speed 5.1 X
Track quality 100.0 %
Test CRC 244201B4
Copy CRC 244201B4
Accurately ripped (confidence 3) [1F9D026F] (AR v1)
Copy OK
Track 2
Filename D:\EAC\02 There Could I Marvel.wav
Peak level 98.8 %
Extraction speed 6.0 X
Track quality 100.0 %
Test CRC F6087432
Copy CRC F6087432
Accurately ripped (confidence 3) [558991AA] (AR v1)
Copy OK
Track 3
Filename D:\EAC\03 There Could I Marvel.wav
Peak level 98.8 %
Extraction speed 5.9 X
Track quality 100.0 %
Test CRC ACDAA8E4
Copy CRC ACDAA8E4
Accurately ripped (confidence 3) [39704F11] (AR v1)
Copy OK
Track 4
Filename D:\EAC\04 There Could I Marvel.wav
Peak level 98.8 %
Extraction speed 6.8 X
Track quality 99.9 %
Test CRC 2C0D6BB7
Copy CRC 2C0D6BB7
Accurately ripped (confidence 3) [523E4BA4] (AR v1)
Copy OK
Track 5
Filename D:\EAC\05 There Could I Marvel.wav
Peak level 98.8 %
Extraction speed 7.7 X
Track quality 99.9 %
Test CRC 1DA7D85F
Copy CRC 1DA7D85F
Accurately ripped (confidence 3) [F8BC90B3] (AR v1)
Copy OK
Track 6
Filename D:\EAC\06 And the Mystery Sang Alive.wav
Pre-gap length 0:00:05.00
Peak level 98.8 %
Extraction speed 8.7 X
Track quality 100.0 %
Test CRC 7AEA0EA5
Copy CRC 7AEA0EA5
Accurately ripped (confidence 3) [9FCD5021] (AR v1)
Copy OK
Track 7
Filename D:\EAC\07 And the Mystery Sang Alive.wav
Peak level 98.8 %
Extraction speed 9.7 X
Track quality 100.0 %
Test CRC 4B65BD41
Copy CRC 4B65BD41
Accurately ripped (confidence 3) [41690EAC] (AR v1)
Copy OK
Track 8
Filename D:\EAC\08 Out of the Loom.wav
Peak level 98.8 %
Extraction speed 9.9 X
Track quality 100.0 %
Test CRC 9F7B4513
Copy CRC 9F7B4513
Accurately ripped (confidence 3) [EED2CAF2] (AR v1)
Copy OK
All tracks accurately ripped
No errors occurred
End of status report
==== Log checksum D868144AC43AEB12BABB15FD564BCBDE6A66DC911DF20532ED011F0A8955C69E ====
 
Содержание индексной карты (.CUE)
REM GENRE Jazz
REM DATE 2004
REM DISCID 8D0EF60A
REM COMMENT "ExactAudioCopy v1.0b3"
PERFORMER "Frank Gratkowski Project"
TITLE "Loft Exil V"
FILE "01 The Morning Beckons.wav" WAVE
TRACK 01 AUDIO
TITLE "The Morning Beckons"
PERFORMER "Frank Gratkowski Project"
INDEX 01 00:00:00
FILE "02 The Morning Beckons.wav" WAVE
TRACK 02 AUDIO
TITLE "The Morning Beckons"
PERFORMER "Frank Gratkowski Project"
INDEX 01 00:00:00
FILE "03 The Morning Beckons.wav" WAVE
TRACK 03 AUDIO
TITLE "The Morning Beckons"
PERFORMER "Frank Gratkowski Project"
INDEX 01 00:00:00
FILE "04 The Morning Beckons.wav" WAVE
TRACK 04 AUDIO
TITLE "The Morning Beckons"
PERFORMER "Frank Gratkowski Project"
INDEX 01 00:00:00
FILE "05 The Morning Beckons.wav" WAVE
TRACK 05 AUDIO
TITLE "The Morning Beckons"
PERFORMER "Frank Gratkowski Project"
INDEX 01 00:00:00
FILE "06 The Morning Beckons.wav" WAVE
TRACK 06 AUDIO
TITLE "The Morning Beckons"
PERFORMER "Frank Gratkowski Project"
INDEX 01 00:00:00
FILE "07 The Morning Beckons.wav" WAVE
TRACK 07 AUDIO
TITLE "The Morning Beckons"
PERFORMER "Frank Gratkowski Project"
INDEX 01 00:00:00
FILE "08 The Morning Beckons.wav" WAVE
TRACK 08 AUDIO
TITLE "The Morning Beckons"
PERFORMER "Frank Gratkowski Project"
INDEX 01 00:00:00
FILE "09 The Morning Beckons.wav" WAVE
TRACK 09 AUDIO
TITLE "The Morning Beckons"
PERFORMER "Frank Gratkowski Project"
INDEX 01 00:00:00
FILE "10 The Morning Beckons.wav" WAVE
TRACK 10 AUDIO
TITLE "The Morning Beckons"
PERFORMER "Frank Gratkowski Project"
INDEX 01 00:00:00
____________________________________________________________________________________________________________________________________________________________________________
REM GENRE Jazz
REM DATE 2004
REM DISCID 60116E08
REM COMMENT "ExactAudioCopy v1.0b3"
PERFORMER "Frank Gratkowski Project"
TITLE "Loft Exil V"
FILE "01 There Could I Marvel.wav" WAVE
TRACK 01 AUDIO
TITLE "There Could I Marvel"
PERFORMER "Frank Gratkowski Project"
INDEX 01 00:00:00
FILE "02 There Could I Marvel.wav" WAVE
TRACK 02 AUDIO
TITLE "There Could I Marvel"
PERFORMER "Frank Gratkowski Project"
INDEX 01 00:00:00
FILE "03 There Could I Marvel.wav" WAVE
TRACK 03 AUDIO
TITLE "There Could I Marvel"
PERFORMER "Frank Gratkowski Project"
INDEX 01 00:00:00
FILE "04 There Could I Marvel.wav" WAVE
TRACK 04 AUDIO
TITLE "There Could I Marvel"
PERFORMER "Frank Gratkowski Project"
INDEX 01 00:00:00
FILE "05 There Could I Marvel.wav" WAVE
TRACK 05 AUDIO
TITLE "There Could I Marvel"
PERFORMER "Frank Gratkowski Project"
INDEX 01 00:00:00
TRACK 06 AUDIO
TITLE "And the Mystery Sang Alive"
PERFORMER "Frank Gratkowski Project"
INDEX 00 11:59:32
FILE "06 And the Mystery Sang Alive.wav" WAVE
INDEX 01 00:00:00
FILE "07 And the Mystery Sang Alive.wav" WAVE
TRACK 07 AUDIO
TITLE "And the Mystery Sang Alive"
PERFORMER "Frank Gratkowski Project"
INDEX 01 00:00:00
FILE "08 Out of the Loom.wav" WAVE
TRACK 08 AUDIO
TITLE "Out of the Loom"
PERFORMER "Frank Gratkowski Project"
INDEX 01 00:00:00
Доп. информация: all compositions by the musicians except “Out of the Loom” by Gratkowski
recorded live at the 32nd New Jazz Festival Moers (Germany) on June 7th (CD 1) and June 8th (CD 2) 2003
 
Об альбоме (сборнике)
In the first movement of Gustav Mahler's Third Symphony, the composer musically presents the birth of the world and nature, with plants and animals coming to life in a wild and brilliant procession. It's the familiar sound world of the composer translated into a rich tableau that is somehow both familiar and brand new.
In this set's first extended piece, "The Morning Beckons, saxophonist Gratkowski and his band offer an emergence from the darkness, as presented in the improvising chattering and chirping of an ensemble that's smaller than the Mahler orchestra but no less expressive in its dramatic comings and goings. Two basses and two drummers do more than give the piece a base—they also add so much sound that the others cannot help but be buoyed by the weight of their presence.
All the musicians collectively are credited with the composition of this and the three pieces on the second disc, all of which come from a live performance at the 32nd New Festival in Moers, Germany. Hans-Martin Muller gave the musicians a new venue—The Loft—from which to present these startling works and the players rose to the occasion.
As in the Mahler work, the sound world is one we know. Here it's the sphere of free jazz improvisation, but Gratkowski and his cohorts (who played the opening week of The Stone last month) have the time and setting to create a new sonic environment. They go from whispers to wails, creating their own path as they go. Gratkowski has a world of jazz and other improvised musics at his back, and they propel him to use them to find otherworldly modes of expression. Americans Herb Robertson and Gerry Hemingway are no strangers to this kind of environment, where they find a home and a starting-off point for musical adventure. Gratkowski's fellow Europeans—Wolter Wierbos, Dieter Manderschied, and Wilbert DeJoode—also know the Loft and the company of Gratkowski and the others as home.
 
Состав
Frank Gratkowski (alto saxophone, clarinet, bass and contrabass clarinet)
Tobias Delius (tenor saxophone, clarinet)
Herb Robertson (trumpet)
Wolter Wierbos (trombone)
Dieter Manderscheid (bass)
Wilbert DeJoode (bass)
Gerry Hemingway (drums)
Michael Vatcher (drums)
21:56
255
Нет комментариев. Ваш будет первым!