Вы используете незарегистрированную версию компонента "Вкладки"!

Поиск

(Avant-Garde Jazz, Free Improvisation) [CD] Exquisite Corpses From P.S. 122 (feat. Anthony Coleman, Chris Cochrane, Ikue Mori, Zeena Parkins, George Cartwright, Fred Lonberg-Holm) - Exquisite Corpses From P.S. 122 - 1990, FLAC (tracks+.cue), lossless

(Avant-Garde Jazz, Free Improvisation) [CD] Exquisite Corpses From P.S. 122 (feat. Anthony Coleman, Chris Cochrane, Ikue Mori, Zeena Parkins, George Cartwright, Fred Lonberg-Holm) - Exquisite Corpses From P.S. 122 - 1990, FLAC (tracks+.cue), lossless
Треклист:
Exquisite Corpses From P.S. 122 / Exquisite Corpses From P.S. 122
Жанр: Avant-Garde Jazz, Free Improvisation
Носитель: CD
Страна-производитель диска (релиза): US
Год издания: 1990
Издатель (лейбл): ?What Next? Recordings
Номер по каталогу: WN0002
Страна исполнителя (группы): US
Аудиокодек: FLAC (*.flac)
Тип рипа: tracks+.cue
Битрейт аудио: lossless
Продолжительность: 56:43
Источник (релизер): свой фирменный диск
Наличие сканов в содержимом раздачи:
Треклист:
1. Template 6:15
2. Burst 0:28
3. Pushmepullyou C 1:30
4. Ostrich A 2:08
5. Crocs & Gators 3:36
6. Absent Friends 2 1:48
7. Gators & Crocs 3:36
8. Ostrich B 2:06
9. Flip Flop A 5:25
10. Bozoburst A 1:05
11. Planarian Worm 7:05
12. Pushmepullyou A 1:39
13. After The Tone 4:10
14. Pushmepullyou B 3:13
15. Flip Flop B 5:10
16. Absent Friends 1 2:06
17. Duet Seeds 3:46
18. Bozoburst B 1:05
 
Лог создания рипа
Exact Audio Copy V1.0 beta 3 from 29. August 2011
EAC extraction logfile from 19. December 2014, 22:34
Exquisite Corpses From P.S. 122 / Exquisite Corpses From P.S. 122
Used drive : TSSTcorpCDDVDW SH-222AB Adapter: 1 ID: 0
Read mode : Secure
Utilize accurate stream : Yes
Defeat audio cache : Yes
Make use of C2 pointers : No
Read offset correction : 6
Overread into Lead-In and Lead-Out : No
Fill up missing offset samples with silence : Yes
Delete leading and trailing silent blocks : No
Null samples used in CRC calculations : Yes
Used interface : Installed external ASPI interface
Gap handling : Appended to previous track
Used output format : User Defined Encoder
Selected bitrate : 768 kBit/s
Quality : High
Add ID3 tag : No
Command line compressor : C:\Program Files\Exact Audio Copy\Flac\flac.exe
Additional command line options : -6 -V -T "ARTIST=%artist%" -T "TITLE=%title%" -T "ALBUM=%albumtitle%" -T "DATE=%year%" -T "TRACKNUMBER=%tracknr%" -T "GENRE=%genre%" -T "COMMENT=%comment%" -T "BAND=%albuminterpret%" -T "COMPOSER=%composer%" %haslyrics%--tag-from-file=LYRICS="%lyricsfile%"%haslyrics% -T "DISCNUMBER=%cdnumber%" -T "TOTALDISCS=%totalcds%" -T "TOTALTRACKS=%numtracks%" %hascover%--picture="%coverfile%"%hascover% %source% -o %dest%
TOC of the extracted CD
Track | Start | Length | Start sector | End sector
---------------------------------------------------------
1 | 0:00.00 | 6:07.05 | 0 | 27529
2 | 6:07.05 | 0:33.05 | 27530 | 30009
3 | 6:40.10 | 1:31.17 | 30010 | 36851
4 | 8:11.27 | 2:07.68 | 36852 | 46444
5 | 10:19.20 | 3:36.05 | 46445 | 62649
6 | 13:55.25 | 1:52.52 | 62650 | 71101
7 | 15:48.02 | 3:39.00 | 71102 | 87526
8 | 19:27.02 | 2:07.30 | 87527 | 97081
9 | 21:34.32 | 5:24.10 | 97082 | 121391
10 | 26:58.42 | 1:10.08 | 121392 | 126649
11 | 28:08.50 | 7:10.72 | 126650 | 158971
12 | 35:19.47 | 1:39.08 | 158972 | 166404
13 | 36:58.55 | 4:16.47 | 166405 | 185651
14 | 41:15.27 | 3:12.08 | 185652 | 200059
15 | 44:27.35 | 5:13.10 | 200060 | 223544
16 | 49:40.45 | 2:11.70 | 223545 | 233439
17 | 51:52.40 | 3:43.02 | 233440 | 250166
18 | 55:35.42 | 1:07.43 | 250167 | 255234
Track 1
Filename D:\zzz\01 - Template.wav
Pre-gap length 0:00:02.00
Peak level 91.0 %
Extraction speed 1.3 X
Track quality 99.8 %
Test CRC F83F6F77
Copy CRC F83F6F77
Cannot be verified as accurate (confidence 1) [A831AEDF], AccurateRip returned [F2A17B86] (AR v2)
Copy OK
Track 2
Filename D:\zzz\02 - Burst.wav
Pre-gap length 0:00:01.03
Peak level 98.0 %
Extraction speed 1.1 X
Track quality 100.0 %
Test CRC 6D959F5F
Copy CRC 6D959F5F
Accurately ripped (confidence 1) [94EED606] (AR v1)
Copy OK
Track 3
Filename D:\zzz\03 - Pushmepullyou C.wav
Pre-gap length 0:00:02.38
Peak level 62.2 %
Extraction speed 1.7 X
Track quality 100.0 %
Test CRC EE8BA121
Copy CRC EE8BA121
Accurately ripped (confidence 1) [F7520E23] (AR v1)
Copy OK
Track 4
Filename D:\zzz\04 - Ostrich A.wav
Pre-gap length 0:00:02.25
Peak level 63.0 %
Extraction speed 2.0 X
Track quality 100.0 %
Test CRC 0B28F096
Copy CRC 0B28F096
Accurately ripped (confidence 1) [E985F7FF] (AR v1)
Copy OK
Track 5
Filename D:\zzz\05 - Crocs & Gators.wav
Pre-gap length 0:00:01.53
Peak level 78.6 %
Extraction speed 2.3 X
Track quality 100.0 %
Test CRC 7CB869D7
Copy CRC 7CB869D7
Accurately ripped (confidence 1) [924468B7] (AR v1)
Copy OK
Track 6
Filename D:\zzz\06 - Absent Friends 2.wav
Pre-gap length 0:00:03.55
Peak level 45.3 %
Extraction speed 2.2 X
Track quality 100.0 %
Test CRC 4382E386
Copy CRC 4382E386
Accurately ripped (confidence 1) [AE8D9CA8] (AR v1)
Copy OK
Track 7
Filename D:\zzz\07 - Gators & Crocs.wav
Pre-gap length 0:00:02.65
Peak level 62.3 %
Extraction speed 2.5 X
Track quality 100.0 %
Test CRC 616192AE
Copy CRC 616192AE
Accurately ripped (confidence 1) [EDF2C6DE] (AR v1)
Copy OK
Track 8
Filename D:\zzz\08 - Ostrich B.wav
Pre-gap length 0:00:02.00
Peak level 66.5 %
Extraction speed 2.4 X
Track quality 100.0 %
Test CRC E524EA91
Copy CRC E524EA91
Accurately ripped (confidence 1) [C76D4B3D] (AR v1)
Copy OK
Track 9
Filename D:\zzz\09 - Flip Flop A.wav
Pre-gap length 0:00:02.15
Peak level 72.3 %
Extraction speed 2.9 X
Track quality 100.0 %
Test CRC 25ED0A82
Copy CRC 25ED0A82
Accurately ripped (confidence 1) [903D116B] (AR v1)
Copy OK
Track 10
Filename D:\zzz\10 - Bozoburst A.wav
Pre-gap length 0:00:02.62
Peak level 85.6 %
Extraction speed 2.2 X
Track quality 100.0 %
Test CRC 6C9CA3C6
Copy CRC 6C9CA3C6
Accurately ripped (confidence 1) [94B76928] (AR v1)
Copy OK
Track 11
Filename D:\zzz\11 - Planarian Worm.wav
Pre-gap length 0:00:03.30
Peak level 92.5 %
Extraction speed 3.0 X
Track quality 99.9 %
Test CRC 6A15B4B1
Copy CRC 6A15B4B1
Accurately ripped (confidence 1) [095B47B0] (AR v1)
Copy OK
Track 12
Filename D:\zzz\12 - Pushmepullyou A.wav
Pre-gap length 0:00:04.27
Peak level 83.1 %
Extraction speed 2.6 X
Track quality 100.0 %
Test CRC D249A8FB
Copy CRC D249A8FB
Accurately ripped (confidence 1) [DA3E1E7B] (AR v1)
Copy OK
Track 13
Filename D:\zzz\13 - After The Tone.wav
Pre-gap length 0:00:01.60
Peak level 57.8 %
Extraction speed 2.9 X
Track quality 99.9 %
Test CRC C5616A74
Copy CRC C5616A74
Accurately ripped (confidence 1) [E47DBE4A] (AR v1)
Copy OK
Track 14
Filename D:\zzz\14 - Pushmepullyou B.wav
Pre-gap length 0:00:01.17
Peak level 86.8 %
Extraction speed 3.2 X
Track quality 100.0 %
Test CRC 665E6D2A
Copy CRC 665E6D2A
Accurately ripped (confidence 1) [5F86DD9E] (AR v1)
Copy OK
Track 15
Filename D:\zzz\15 - Flip Flop B.wav
Pre-gap length 0:00:02.43
Peak level 79.1 %
Extraction speed 3.5 X
Track quality 100.0 %
Test CRC 45E005D8
Copy CRC 45E005D8
Accurately ripped (confidence 1) [35EDAE2D] (AR v1)
Copy OK
Track 16
Filename D:\zzz\16 - Absent Friends 1.wav
Pre-gap length 0:00:02.40
Peak level 46.3 %
Extraction speed 3.2 X
Track quality 100.0 %
Test CRC AAF3AE70
Copy CRC AAF3AE70
Accurately ripped (confidence 1) [378D0E87] (AR v1)
Copy OK
Track 17
Filename D:\zzz\17 - Duet Seeds.wav
Pre-gap length 0:00:02.53
Peak level 76.0 %
Extraction speed 3.6 X
Track quality 100.0 %
Test CRC 33DA13E5
Copy CRC 33DA13E5
Accurately ripped (confidence 1) [C98B73AA] (AR v1)
Copy OK
Track 18
Filename D:\zzz\18 - Bozoburst B.wav
Pre-gap length 0:00:02.25
Peak level 86.7 %
Extraction speed 2.7 X
Track quality 100.0 %
Test CRC 08E2FA74
Copy CRC 08E2FA74
Accurately ripped (confidence 1) [EC47781F] (AR v1)
Copy OK
17 track(s) accurately ripped
1 track(s) could not be verified as accurate
Some tracks could not be verified as accurate
No errors occurred
End of status report
==== Log checksum E9DD7DDD71CD82E028F78C9840E1CA2E64D46260796E40C7CE99AC00C526BC30 ====
 
Содержание индексной карты (.CUE)
REM GENRE "Free Improvisation"
REM DATE 1990
REM DISCID F40D4B12
REM COMMENT "ExactAudioCopy v1.0b3"
PERFORMER "Exquisite Corpses From P.S. 122"
TITLE "Exquisite Corpses From P.S. 122"
FILE "01 - Template.wav" WAVE
TRACK 01 AUDIO
TITLE "Template"
PERFORMER "Exquisite Corpses From P.S. 122"
INDEX 01 00:00:00
TRACK 02 AUDIO
TITLE "Burst"
PERFORMER "Exquisite Corpses From P.S. 122"
INDEX 00 06:06:02
FILE "02 - Burst.wav" WAVE
INDEX 01 00:00:00
TRACK 03 AUDIO
TITLE "Pushmepullyou C"
PERFORMER "Exquisite Corpses From P.S. 122"
INDEX 00 00:30:42
FILE "03 - Pushmepullyou C.wav" WAVE
INDEX 01 00:00:00
TRACK 04 AUDIO
TITLE "Ostrich A"
PERFORMER "Exquisite Corpses From P.S. 122"
INDEX 00 01:28:67
FILE "04 - Ostrich A.wav" WAVE
INDEX 01 00:00:00
TRACK 05 AUDIO
TITLE "Crocs & Gators"
PERFORMER "Exquisite Corpses From P.S. 122"
INDEX 00 02:06:15
FILE "05 - Crocs & Gators.wav" WAVE
INDEX 01 00:00:00
TRACK 06 AUDIO
TITLE "Absent Friends 2"
PERFORMER "Exquisite Corpses From P.S. 122"
INDEX 00 03:32:25
FILE "06 - Absent Friends 2.wav" WAVE
INDEX 01 00:00:00
TRACK 07 AUDIO
TITLE "Gators & Crocs"
PERFORMER "Exquisite Corpses From P.S. 122"
INDEX 00 01:49:62
FILE "07 - Gators & Crocs.wav" WAVE
INDEX 01 00:00:00
TRACK 08 AUDIO
TITLE "Ostrich B"
PERFORMER "Exquisite Corpses From P.S. 122"
INDEX 00 03:37:00
FILE "08 - Ostrich B.wav" WAVE
INDEX 01 00:00:00
TRACK 09 AUDIO
TITLE "Flip Flop A"
PERFORMER "Exquisite Corpses From P.S. 122"
INDEX 00 02:05:15
FILE "09 - Flip Flop A.wav" WAVE
INDEX 01 00:00:00
TRACK 10 AUDIO
TITLE "Bozoburst A"
PERFORMER "Exquisite Corpses From P.S. 122"
INDEX 00 05:21:23
FILE "10 - Bozoburst A.wav" WAVE
INDEX 01 00:00:00
TRACK 11 AUDIO
TITLE "Planarian Worm"
PERFORMER "Exquisite Corpses From P.S. 122"
INDEX 00 01:06:53
FILE "11 - Planarian Worm.wav" WAVE
INDEX 01 00:00:00
TRACK 12 AUDIO
TITLE "Pushmepullyou A"
PERFORMER "Exquisite Corpses From P.S. 122"
INDEX 00 07:06:45
FILE "12 - Pushmepullyou A.wav" WAVE
INDEX 01 00:00:00
TRACK 13 AUDIO
TITLE "After The Tone"
PERFORMER "Exquisite Corpses From P.S. 122"
INDEX 00 01:37:23
FILE "13 - After The Tone.wav" WAVE
INDEX 01 00:00:00
TRACK 14 AUDIO
TITLE "Pushmepullyou B"
PERFORMER "Exquisite Corpses From P.S. 122"
INDEX 00 04:15:30
FILE "14 - Pushmepullyou B.wav" WAVE
INDEX 01 00:00:00
TRACK 15 AUDIO
TITLE "Flip Flop B"
PERFORMER "Exquisite Corpses From P.S. 122"
INDEX 00 03:09:40
FILE "15 - Flip Flop B.wav" WAVE
INDEX 01 00:00:00
TRACK 16 AUDIO
TITLE "Absent Friends 1"
PERFORMER "Exquisite Corpses From P.S. 122"
INDEX 00 05:10:45
FILE "16 - Absent Friends 1.wav" WAVE
INDEX 01 00:00:00
TRACK 17 AUDIO
TITLE "Duet Seeds"
PERFORMER "Exquisite Corpses From P.S. 122"
INDEX 00 02:09:17
FILE "17 - Duet Seeds.wav" WAVE
INDEX 01 00:00:00
TRACK 18 AUDIO
TITLE "Bozoburst B"
PERFORMER "Exquisite Corpses From P.S. 122"
INDEX 00 03:40:52
FILE "18 - Bozoburst B.wav" WAVE
INDEX 01 00:00:00
 
Лог проверки качества
d:\>d:\aucdtect -d/-m0 d:\zzz\*.wav
auCDtect: CD records authenticity detector, version 0.8.2
Copyright (c) 2004 Oleg Berngardt. All rights reserved.
Copyright (c) 2004 Alexander Djourik. All rights reserved.
------------------------------------------------------------
Processing file: [01. Template.wav]
------------------------------------------------------------
This track looks like CDDA with probability 100%
------------------------------------------------------------
Processing file: [02. Burst.wav]
------------------------------------------------------------
This track looks like CDDA with probability 100%
------------------------------------------------------------
Processing file: [03. Pushmepullyou C.wav]
------------------------------------------------------------
This track looks like CDDA with probability 100%
------------------------------------------------------------
Processing file: [04. Ostrich A.wav]
------------------------------------------------------------
This track looks like CDDA with probability 100%
------------------------------------------------------------
Processing file: [05. Crocs & Gators.wav]
------------------------------------------------------------
This track looks like CDDA with probability 100%
------------------------------------------------------------
Processing file: [06. Absent Friends 2.wav]
------------------------------------------------------------
This track looks like CDDA with probability 100%
------------------------------------------------------------
Processing file: [07. Gators & Crocs.wav]
------------------------------------------------------------
This track looks like CDDA with probability 100%
------------------------------------------------------------
Processing file: [08. Ostrich B.wav]
------------------------------------------------------------
This track looks like CDDA with probability 100%
------------------------------------------------------------
Processing file: [09. Flip Flop A.wav]
------------------------------------------------------------
This track looks like CDDA with probability 99%
------------------------------------------------------------
Processing file: [10. Bozoburst A.wav]
------------------------------------------------------------
This track looks like CDDA with probability 100%
------------------------------------------------------------
Processing file: [11. Planarian Worm.wav]
------------------------------------------------------------
This track looks like CDDA with probability 100%
------------------------------------------------------------
Processing file: [12. Pushmepullyou A.wav]
------------------------------------------------------------
This track looks like CDDA with probability 100%
------------------------------------------------------------
Processing file: [13. After The Tone.wav]
------------------------------------------------------------
This track looks like CDDA with probability 100%
------------------------------------------------------------
Processing file: [14. Pushmepullyou B.wav]
------------------------------------------------------------
This track looks like CDDA with probability 100%
------------------------------------------------------------
Processing file: [15. Flip Flop B.wav]
------------------------------------------------------------
This track looks like CDDA with probability 100%
------------------------------------------------------------
Processing file: [16. Absent Friends 1.wav]
------------------------------------------------------------
Could not qualify the source of this track.
------------------------------------------------------------
Processing file: [17. Duet Seeds.wav]
------------------------------------------------------------
This track looks like CDDA with probability 99%
------------------------------------------------------------
Processing file: [18. Bozoburst B.wav]
------------------------------------------------------------
This track looks like CDDA with probability 100%
------------------------------------------------------------
Final Conclusion:
------------------------------------------------------------
These tracks looks like CDDA with probability 100%
Доп. информация:
 
Album Info & AMG Review
Recorded at Noise NY, P.S. 122 and on Guy's answering machine
Sequenced at Tom 'n Andy Studios
Produced by Doug Henderson and Guy Yarden
Engineered and mixed by Doug Henderson
Design by Sue Ann Harkey
Liner notes and track order by Paul Hoskin, D.H. & G.Y.
Gratitude goes out to Gayle Morgan and the Cary Trust; Steve Peters, Nonsequitur Foundation and ?What Next?; everyone at Performance Space 122; Andy and Tom; Noise NY, Kramer; Will Sternberg for original idea; and all the musicians.
Partial funding for this recording has been provided by the Mary Flagler Cary Charitable Trust.
Not actually a collection, but a collective improvisation by 30 performer/composers, in which each participant was given only a hint of the contributions of other participants, the whole of the improvisations then collected together, unedited and without over-dubbing or re-takes. A panorama of approaches to the meaning of improvisation. - "Blue" Gene Tyranny, AMG
 
Состав
David Watson: shears, stick violin, guitar, trumpet
Judy Dunaway: guitar, balloons
Anthony Coleman: sampler
Raissa St. Pierre: drums
Guy Yarden: violin, piano
Leslie Ross: bassoon
Linda Austin: guitar
Bruce Kaplan: guitar
Doug Henderson: peckhorn, bass, toy piano
Sue Ann Harkey: 12 string guitar
Cinnie Cole: sampler
Mike Sappol: bass, busy box, tape loops
Nell: vox
Ruth Peyser: guitar
Chris Cochrane: guitar
Doug Seidel: guitar, congas
Nancy Campbell: saxophone
Ikue Mori: drum machine
Evan Gallagher: junk, percussion, toys, piano
Sue Garner: bass
Zeena Parkins: keyboard
Catherine Jauniaux: voice, flute
George Cartwright: saxophone, flute
Matthew Ostrowski: analog synthesizer
Bob Lipman: guitar
David Sardy: drums, bass
Paul Hoskin: contrabass clarinet
Steve Peters: saxophone, Santa Fe
Fred Lonberg-Holm: travicello, San Francisco
Will Sternberg: guitar, tapes, Paris
Bruno Meillier: saxophone, St. Etienne
По всем вопросам пишите личное сообщение пользователю M0p94ok.
08:51
300
Нет комментариев. Ваш будет первым!