Вы используете незарегистрированную версию компонента "Вкладки"!

Поиск

(Avant-Garde Jazz, Free Improvisation) [CD] Bolt (Jorrit Dijkstra, Eric Hofbauer, Junko Fujiwara, Eric Rosenthal) - Shuffle - 2014, FLAC (tracks+.cue), lossless

(Avant-Garde Jazz, Free Improvisation) [CD] Bolt (Jorrit Dijkstra, Eric Hofbauer, Junko Fujiwara, Eric Rosenthal) - Shuffle - 2014, FLAC (tracks+.cue), lossless
Треклист:
Bolt / Shuffle
Жанр: Avant-Garde Jazz, Free Improvisation
Носитель: CD
Страна-производитель диска (релиза): US
Год издания: 2014
Издатель (лейбл): Driff Records
Номер по каталогу: CD1402
Аудиокодек: FLAC (*.flac)
Тип рипа: tracks+.cue
Битрейт аудио: lossless
Продолжительность: 47:28
Источник (релизер): whatcd (tfvbhy)
Наличие сканов в содержимом раздачи: нет
Треклист:
1. Lace 2:50
2. Haze 0:46
3. Chase 2:41
4. Daze 1:04
5. Graze 2:19
6. Brace 3:06
7. Mace 7:07
8. Trace 1:24
9. Place 2:34
10. Blaze 8:09
11. Grace 0:30
12. Gaze 2:43
13. Space 1:13
14. Phase 0:37
15. Base 0:56
16. Raze 0:47
17. Face 3:44
18. Race 3:09
19. Maze 1:47
 
Лог создания рипа
X Lossless Decoder version 20141129a (148.2)
XLD extraction logfile from 2015-09-20 16:56:36 -0400
Bolt / Shuffle
Used drive : HL-DT-ST DVDRW GS41N (revision UA04)
Media type : Pressed CD
Ripper mode : XLD Secure Ripper
Disable audio cache : OK for the drive with a cache less than 1375KiB
Make use of C2 pointers : NO
Read offset correction : 6
Max retry count : 100
Gap status : Analyzed, Appended (except HTOA)
TOC of the extracted CD
Track | Start | Length | Start sector | End sector
---------------------------------------------------------
1 | 00:00:00 | 02:50:19 | 0 | 12768
2 | 02:50:19 | 00:46:14 | 12769 | 16232
3 | 03:36:33 | 02:40:72 | 16233 | 28304
4 | 06:17:30 | 01:03:54 | 28305 | 33083
5 | 07:21:09 | 02:18:73 | 33084 | 43506
6 | 09:40:07 | 03:05:59 | 43507 | 57440
7 | 12:45:66 | 07:07:37 | 57441 | 89502
8 | 19:53:28 | 01:24:27 | 89503 | 95829
9 | 21:17:55 | 02:34:02 | 95830 | 107381
10 | 23:51:57 | 08:08:60 | 107382 | 144041
11 | 32:00:42 | 00:29:58 | 144042 | 146274
12 | 32:30:25 | 02:43:14 | 146275 | 158513
13 | 35:13:39 | 01:13:36 | 158514 | 164024
14 | 36:27:00 | 00:37:15 | 164025 | 166814
15 | 37:04:15 | 00:56:06 | 166815 | 171020
16 | 38:00:21 | 00:47:03 | 171021 | 174548
17 | 38:47:24 | 03:44:29 | 174549 | 191377
18 | 42:31:53 | 03:09:15 | 191378 | 205567
19 | 45:40:68 | 01:47:12 | 205568 | 213604
AccurateRip Summary
Disc not found in AccurateRip DB.
All Tracks
Album gain : -4.07 dB
Peak : 0.988953
Statistics
Read error : 0
Jitter error (maybe fixed) : 0
Retry sector count : 0
Damaged sector count : 0
Track 01
Filename : /Users/AdamCB/Desktop/01 Bolt - Lace.flac
Pre-gap length : 00:02:00
Track gain : -6.09 dB
Peak : 0.988831
CRC32 hash (test run) : 190A333F
CRC32 hash : 190A333F
CRC32 hash (skip zero) : 21F2533C
AccurateRip v1 signature : F18A727E
AccurateRip v2 signature : 45664752
->Track not present in AccurateRip database.
Statistics
Read error : 0
Jitter error (maybe fixed) : 0
Retry sector count : 0
Damaged sector count : 0
Track 02
Filename : /Users/AdamCB/Desktop/02 Bolt - Haze.flac
Track gain : -0.39 dB
Peak : 0.430573
CRC32 hash (test run) : CF83B67A
CRC32 hash : CF83B67A
CRC32 hash (skip zero) : 03C22F08
AccurateRip v1 signature : 0C1ED0DB
AccurateRip v2 signature : 3350B7B5
->Track not present in AccurateRip database.
Statistics
Read error : 0
Jitter error (maybe fixed) : 0
Retry sector count : 0
Damaged sector count : 0
Track 03
Filename : /Users/AdamCB/Desktop/03 Bolt - Chase.flac
Track gain : -4.82 dB
Peak : 0.988922
CRC32 hash (test run) : 5108DB84
CRC32 hash : 5108DB84
CRC32 hash (skip zero) : 415328BB
AccurateRip v1 signature : 164CAB4B
AccurateRip v2 signature : BD2BB688
->Track not present in AccurateRip database.
Statistics
Read error : 0
Jitter error (maybe fixed) : 0
Retry sector count : 0
Damaged sector count : 0
Track 04
Filename : /Users/AdamCB/Desktop/04 Bolt - Daze.flac
Track gain : 1.50 dB
Peak : 0.988525
CRC32 hash (test run) : 2428DC31
CRC32 hash : 2428DC31
CRC32 hash (skip zero) : A61D586D
AccurateRip v1 signature : 87F65D92
AccurateRip v2 signature : B1CDF47C
->Track not present in AccurateRip database.
Statistics
Read error : 0
Jitter error (maybe fixed) : 0
Retry sector count : 0
Damaged sector count : 0
Track 05
Filename : /Users/AdamCB/Desktop/05 Bolt - Graze.flac
Track gain : 2.16 dB
Peak : 0.695831
CRC32 hash (test run) : 69E3AD10
CRC32 hash : 69E3AD10
CRC32 hash (skip zero) : F3887301
AccurateRip v1 signature : 452FCAFF
AccurateRip v2 signature : 5142AF97
->Track not present in AccurateRip database.
Statistics
Read error : 0
Jitter error (maybe fixed) : 0
Retry sector count : 0
Damaged sector count : 0
Track 06
Filename : /Users/AdamCB/Desktop/06 Bolt - Brace.flac
Track gain : -5.66 dB
Peak : 0.988892
CRC32 hash (test run) : 2A086724
CRC32 hash : 2A086724
CRC32 hash (skip zero) : F75A2178
AccurateRip v1 signature : 3C4A1BA9
AccurateRip v2 signature : 0F3F429D
->Track not present in AccurateRip database.
Statistics
Read error : 0
Jitter error (maybe fixed) : 0
Retry sector count : 0
Damaged sector count : 0
Track 07
Filename : /Users/AdamCB/Desktop/07 Bolt - Mace.flac
Track gain : -0.79 dB
Peak : 0.988708
CRC32 hash (test run) : B542F18D
CRC32 hash : B542F18D
CRC32 hash (skip zero) : 385AAB93
AccurateRip v1 signature : D9FFA38F
AccurateRip v2 signature : 96A88785
->Track not present in AccurateRip database.
Statistics
Read error : 0
Jitter error (maybe fixed) : 0
Retry sector count : 0
Damaged sector count : 0
Track 08
Filename : /Users/AdamCB/Desktop/08 Bolt - Trace.flac
Track gain : 4.96 dB
Peak : 0.988708
CRC32 hash (test run) : 9AEC2E73
CRC32 hash : 9AEC2E73
CRC32 hash (skip zero) : 68A66FE3
AccurateRip v1 signature : E8B9BB1A
AccurateRip v2 signature : 6DCD83F9
->Track not present in AccurateRip database.
Statistics
Read error : 0
Jitter error (maybe fixed) : 0
Retry sector count : 0
Damaged sector count : 0
Track 09
Filename : /Users/AdamCB/Desktop/09 Bolt - Place.flac
Track gain : -1.01 dB
Peak : 0.988708
CRC32 hash (test run) : 1F79FA50
CRC32 hash : 1F79FA50
CRC32 hash (skip zero) : 82993354
AccurateRip v1 signature : 75604A31
AccurateRip v2 signature : F0452164
->Track not present in AccurateRip database.
Statistics
Read error : 0
Jitter error (maybe fixed) : 0
Retry sector count : 0
Damaged sector count : 0
Track 10
Filename : /Users/AdamCB/Desktop/10 Bolt - Blaze.flac
Track gain : -4.74 dB
Peak : 0.988831
CRC32 hash (test run) : 1657002B
CRC32 hash : 1657002B
CRC32 hash (skip zero) : 49FC1F84
AccurateRip v1 signature : 5DE09D23
AccurateRip v2 signature : 3F43419A
->Track not present in AccurateRip database.
Statistics
Read error : 0
Jitter error (maybe fixed) : 0
Retry sector count : 0
Damaged sector count : 0
Track 11
Filename : /Users/AdamCB/Desktop/11 Bolt - Grace.flac
Track gain : 1.98 dB
Peak : 0.689758
CRC32 hash (test run) : B0A22E6A
CRC32 hash : B0A22E6A
CRC32 hash (skip zero) : CE46EFD4
AccurateRip v1 signature : E4D06F1B
AccurateRip v2 signature : 07379326
->Track not present in AccurateRip database.
Statistics
Read error : 0
Jitter error (maybe fixed) : 0
Retry sector count : 0
Damaged sector count : 0
Track 12
Filename : /Users/AdamCB/Desktop/12 Bolt - Gaze.flac
Track gain : -2.51 dB
Peak : 0.988953
CRC32 hash (test run) : 9364B51E
CRC32 hash : 9364B51E
CRC32 hash (skip zero) : 49FFE1D6
AccurateRip v1 signature : C1109803
AccurateRip v2 signature : D73994ED
->Track not present in AccurateRip database.
Statistics
Read error : 0
Jitter error (maybe fixed) : 0
Retry sector count : 0
Damaged sector count : 0
Track 13
Filename : /Users/AdamCB/Desktop/13 Bolt - Space.flac
Track gain : -1.45 dB
Peak : 0.988739
CRC32 hash (test run) : 88B24E03
CRC32 hash : 88B24E03
CRC32 hash (skip zero) : 74B5B754
AccurateRip v1 signature : F6AA68AA
AccurateRip v2 signature : 56531F23
->Track not present in AccurateRip database.
Statistics
Read error : 0
Jitter error (maybe fixed) : 0
Retry sector count : 0
Damaged sector count : 0
Track 14
Filename : /Users/AdamCB/Desktop/14 Bolt - Phase.flac
Track gain : 4.15 dB
Peak : 0.543304
CRC32 hash (test run) : E5DC02C9
CRC32 hash : E5DC02C9
CRC32 hash (skip zero) : CAC36BA8
AccurateRip v1 signature : ED195CF5
AccurateRip v2 signature : 18AD54A2
->Track not present in AccurateRip database.
Statistics
Read error : 0
Jitter error (maybe fixed) : 0
Retry sector count : 0
Damaged sector count : 0
Track 15
Filename : /Users/AdamCB/Desktop/15 Bolt - Base.flac
Track gain : -4.00 dB
Peak : 0.988525
CRC32 hash (test run) : 463BB4D5
CRC32 hash : 463BB4D5
CRC32 hash (skip zero) : 2BFEC666
AccurateRip v1 signature : 1BE29324
AccurateRip v2 signature : 287E045C
->Track not present in AccurateRip database.
Statistics
Read error : 0
Jitter error (maybe fixed) : 0
Retry sector count : 0
Damaged sector count : 0
Track 16
Filename : /Users/AdamCB/Desktop/16 Bolt - Raze.flac
Track gain : -4.28 dB
Peak : 0.988739
CRC32 hash (test run) : 4D1D5040
CRC32 hash : 4D1D5040
CRC32 hash (skip zero) : AA510382
AccurateRip v1 signature : 789016C5
AccurateRip v2 signature : 57AD1101
->Track not present in AccurateRip database.
Statistics
Read error : 0
Jitter error (maybe fixed) : 0
Retry sector count : 0
Damaged sector count : 0
Track 17
Filename : /Users/AdamCB/Desktop/17 Bolt - Face.flac
Track gain : 0.96 dB
Peak : 0.988800
CRC32 hash (test run) : 8359D1C7
CRC32 hash : 8359D1C7
CRC32 hash (skip zero) : DCAB0BE2
AccurateRip v1 signature : 178F73C3
AccurateRip v2 signature : 7AEB7083
->Track not present in AccurateRip database.
Statistics
Read error : 0
Jitter error (maybe fixed) : 0
Retry sector count : 0
Damaged sector count : 0
Track 18
Filename : /Users/AdamCB/Desktop/18 Bolt - Race.flac
Track gain : -6.01 dB
Peak : 0.988953
CRC32 hash (test run) : E10B3923
CRC32 hash : E10B3923
CRC32 hash (skip zero) : CF2B273C
AccurateRip v1 signature : 7AD955EC
AccurateRip v2 signature : 4EA14CD1
->Track not present in AccurateRip database.
Statistics
Read error : 0
Jitter error (maybe fixed) : 0
Retry sector count : 0
Damaged sector count : 0
Track 19
Filename : /Users/AdamCB/Desktop/19 Bolt - Maze.flac
Track gain : -2.94 dB
Peak : 0.988892
CRC32 hash (test run) : 474DFAB5
CRC32 hash : 474DFAB5
CRC32 hash (skip zero) : 91515C39
AccurateRip v1 signature : 3C7CD1A6
AccurateRip v2 signature : 761EFE91
->Track not present in AccurateRip database.
Statistics
Read error : 0
Jitter error (maybe fixed) : 0
Retry sector count : 0
Damaged sector count : 0
No errors occurred
End of status report
-----BEGIN XLD SIGNATURE-----
PoqfDNSt_5RSJLQWITJVOCf3IA9nvzZZnRK.Ma1K5NMhW.QdgsmATebkoUc_y_b51WhuTLHnG11FA91CMGF6mpTwDTuGc73LIGr62tK
-----END XLD SIGNATURE-----
 
Содержание индексной карты (.CUE)
TITLE "Shuffle"
PERFORMER "Bolt"
REM GENRE "Jazz"
REM DATE "2014"
REM DISCNUMBER 1
REM TOTALDISCS 1
REM DISCID 0B0B2013
REM REPLAYGAIN_ALBUM_GAIN -4.07 dB
REM REPLAYGAIN_ALBUM_PEAK 0.988953
FILE "01 Bolt - Lace.flac" WAVE
TRACK 01 AUDIO
TITLE "Lace"
PERFORMER "Bolt"
FLAGS DCP
REM REPLAYGAIN_TRACK_GAIN -6.09 dB
REM REPLAYGAIN_TRACK_PEAK 0.988831
INDEX 01 00:00:00
FILE "02 Bolt - Haze.flac" WAVE
TRACK 02 AUDIO
TITLE "Haze"
PERFORMER "Bolt"
FLAGS DCP
REM REPLAYGAIN_TRACK_GAIN -0.39 dB
REM REPLAYGAIN_TRACK_PEAK 0.430573
INDEX 01 00:00:00
FILE "03 Bolt - Chase.flac" WAVE
TRACK 03 AUDIO
TITLE "Chase"
PERFORMER "Bolt"
FLAGS DCP
REM REPLAYGAIN_TRACK_GAIN -4.82 dB
REM REPLAYGAIN_TRACK_PEAK 0.988922
INDEX 01 00:00:00
FILE "04 Bolt - Daze.flac" WAVE
TRACK 04 AUDIO
TITLE "Daze"
PERFORMER "Bolt"
FLAGS DCP
REM REPLAYGAIN_TRACK_GAIN 1.50 dB
REM REPLAYGAIN_TRACK_PEAK 0.988525
INDEX 01 00:00:00
FILE "05 Bolt - Graze.flac" WAVE
TRACK 05 AUDIO
TITLE "Graze"
PERFORMER "Bolt"
FLAGS DCP
REM REPLAYGAIN_TRACK_GAIN 2.16 dB
REM REPLAYGAIN_TRACK_PEAK 0.695831
INDEX 01 00:00:00
FILE "06 Bolt - Brace.flac" WAVE
TRACK 06 AUDIO
TITLE "Brace"
PERFORMER "Bolt"
FLAGS DCP
REM REPLAYGAIN_TRACK_GAIN -5.66 dB
REM REPLAYGAIN_TRACK_PEAK 0.988892
INDEX 01 00:00:00
FILE "07 Bolt - Mace.flac" WAVE
TRACK 07 AUDIO
TITLE "Mace"
PERFORMER "Bolt"
FLAGS DCP
REM REPLAYGAIN_TRACK_GAIN -0.79 dB
REM REPLAYGAIN_TRACK_PEAK 0.988708
INDEX 01 00:00:00
FILE "08 Bolt - Trace.flac" WAVE
TRACK 08 AUDIO
TITLE "Trace"
PERFORMER "Bolt"
FLAGS DCP
REM REPLAYGAIN_TRACK_GAIN 4.96 dB
REM REPLAYGAIN_TRACK_PEAK 0.988708
INDEX 01 00:00:00
FILE "09 Bolt - Place.flac" WAVE
TRACK 09 AUDIO
TITLE "Place"
PERFORMER "Bolt"
FLAGS DCP
REM REPLAYGAIN_TRACK_GAIN -1.01 dB
REM REPLAYGAIN_TRACK_PEAK 0.988708
INDEX 01 00:00:00
FILE "10 Bolt - Blaze.flac" WAVE
TRACK 10 AUDIO
TITLE "Blaze"
PERFORMER "Bolt"
FLAGS DCP
REM REPLAYGAIN_TRACK_GAIN -4.74 dB
REM REPLAYGAIN_TRACK_PEAK 0.988831
INDEX 01 00:00:00
FILE "11 Bolt - Grace.flac" WAVE
TRACK 11 AUDIO
TITLE "Grace"
PERFORMER "Bolt"
FLAGS DCP
REM REPLAYGAIN_TRACK_GAIN 1.98 dB
REM REPLAYGAIN_TRACK_PEAK 0.689758
INDEX 01 00:00:00
FILE "12 Bolt - Gaze.flac" WAVE
TRACK 12 AUDIO
TITLE "Gaze"
PERFORMER "Bolt"
FLAGS DCP
REM REPLAYGAIN_TRACK_GAIN -2.51 dB
REM REPLAYGAIN_TRACK_PEAK 0.988953
INDEX 01 00:00:00
FILE "13 Bolt - Space.flac" WAVE
TRACK 13 AUDIO
TITLE "Space"
PERFORMER "Bolt"
FLAGS DCP
REM REPLAYGAIN_TRACK_GAIN -1.45 dB
REM REPLAYGAIN_TRACK_PEAK 0.988739
INDEX 01 00:00:00
FILE "14 Bolt - Phase.flac" WAVE
TRACK 14 AUDIO
TITLE "Phase"
PERFORMER "Bolt"
FLAGS DCP
REM REPLAYGAIN_TRACK_GAIN 4.15 dB
REM REPLAYGAIN_TRACK_PEAK 0.543304
INDEX 01 00:00:00
FILE "15 Bolt - Base.flac" WAVE
TRACK 15 AUDIO
TITLE "Base"
PERFORMER "Bolt"
FLAGS DCP
REM REPLAYGAIN_TRACK_GAIN -4.00 dB
REM REPLAYGAIN_TRACK_PEAK 0.988525
INDEX 01 00:00:00
FILE "16 Bolt - Raze.flac" WAVE
TRACK 16 AUDIO
TITLE "Raze"
PERFORMER "Bolt"
FLAGS DCP
REM REPLAYGAIN_TRACK_GAIN -4.28 dB
REM REPLAYGAIN_TRACK_PEAK 0.988739
INDEX 01 00:00:00
FILE "17 Bolt - Face.flac" WAVE
TRACK 17 AUDIO
TITLE "Face"
PERFORMER "Bolt"
FLAGS DCP
REM REPLAYGAIN_TRACK_GAIN 0.96 dB
REM REPLAYGAIN_TRACK_PEAK 0.988800
INDEX 01 00:00:00
FILE "18 Bolt - Race.flac" WAVE
TRACK 18 AUDIO
TITLE "Race"
PERFORMER "Bolt"
FLAGS DCP
REM REPLAYGAIN_TRACK_GAIN -6.01 dB
REM REPLAYGAIN_TRACK_PEAK 0.988953
INDEX 01 00:00:00
FILE "19 Bolt - Maze.flac" WAVE
TRACK 19 AUDIO
TITLE "Maze"
PERFORMER "Bolt"
FLAGS DCP
REM REPLAYGAIN_TRACK_GAIN -2.94 dB
REM REPLAYGAIN_TRACK_PEAK 0.988892
INDEX 01 00:00:00
Доп. информация: Recorded at Brick Hill Studio, Orleans, Massachusetts, on July 8th, 2013.
 
Об исполнителе (группе)
"Boston-based quartet BOLT has been working locally since 2011, focusing solely on free improvisation. Using the distinctive timbral combination of two stringed instruments with the lyricon (an analog electronic wind synthesizer from the 1970s), saxophone, and percussion, BOLT's group sound balances anywhere between the energy-orgies of free jazz and the sparse soundscapes of electronic minimalist improv. In the more expressive moments of a BOLT set the music hints at Boston's influential master of microtonal improvisation Joe Maneri. In the more quiet introspective moments one could hear a modern day extension of the late 1940s experiments with free improvisation of the Tristano school. This recording was deliberately conceived to create a different listening experience from that of a live concert. The nineteen takes of this CD were carefully chosen from thirty-six improvised pieces recorded during a session in the summer of 2013. Shuffling the pieces in random order gives thelistener a fresh perspective on the music every single time, adding an aleatoric and more compositional element to the music."-Driff Records
 
Состав
Jorrit Dijkstra-alto saxophone, lyricon
Eric Hofbauer-guitar
Junko Fujiwara-cello
Eric Rosenthal-drums, percussion
По всем вопросам пишите личное сообщение пользователю M0p94ok.
15:51
225
Нет комментариев. Ваш будет первым!