Вы используете незарегистрированную версию компонента "Вкладки"!

Поиск

(Avant-Garde Jazz, Free Improvisation) [CD] Assif Tsahar & Tatsuya Nakatani - I Got It Bad - 2013, FLAC (tracks+.cue), lossless

(Avant-Garde Jazz, Free Improvisation) [CD] Assif Tsahar & Tatsuya Nakatani - I Got It Bad - 2013, FLAC (tracks+.cue), lossless
Треклист:
Assif Tsahar & Tatsuya Nakatani / I Got It Bad
Жанр: Avant-Garde Jazz, Free Improvisation
Носитель: CD
Страна-производитель диска (релиза): US
Год издания: 2013
Издатель (лейбл): Hopscotch Records
Номер по каталогу: CD-HOP-45
Аудиокодек: FLAC (*.flac)
Тип рипа: tracks+.cue
Битрейт аудио: lossless
Продолжительность: 67:06
Источник (релизер): cd
Наличие сканов в содержимом раздачи: нет
Треклист:
1. I Got It Bad 4:44
2. Define 1:57
3. Deliver 4:58
4. Gaze 4:56
5. Reclaim 4:06
6. Whisper 2:02
7. Collate 2:58
8. Search 4:07
9. Excavate 1:46
10. Heed 2:29
11. Intuit 1:46
12. Persuade 5:07
13. Pun 1:24
14. Disguise 3:06
15. Dodge 5:17
16. Flow 2:24
17. Redeem 5:11
18. Shift 2:15
19. Dash 2:00
20. Glow 4:34
 
Лог создания рипа
Exact Audio Copy V1.0 beta 3 from 29. August 2011
EAC extraction logfile from 21. December 2014, 16:13
Assif Tsahar & Tatsuya Nakatani / I Got It Bad
Used drive : ASUS DRW-24F1ST a Adapter: 0 ID: 0
Read mode : Secure
Utilize accurate stream : Yes
Defeat audio cache : Yes
Make use of C2 pointers : No
Read offset correction : 6
Overread into Lead-In and Lead-Out : No
Fill up missing offset samples with silence : Yes
Delete leading and trailing silent blocks : No
Null samples used in CRC calculations : Yes
Used interface : Native Win32 interface for Win NT & 2000
Gap handling : Appended to previous track
Used output format : User Defined Encoder
Selected bitrate : 320 kBit/s
Quality : High
Add ID3 tag : No
Command line compressor : D:\Programs\Exact Audio Copy\Flac\flac.exe
Additional command line options : -V -8 -T "Genre=%genre%" -T "Artist=%artist%" -T "Title=%title%" -T "Album=%albumtitle%" -T "Date=%year%" -T "Tracknumber=%tracknr%" -T "Comment=%comment%" %source%
TOC of the extracted CD
Track | Start | Length | Start sector | End sector
---------------------------------------------------------
1 | 0:00.00 | 4:43.65 | 0 | 21289
2 | 4:43.65 | 1:56.39 | 21290 | 30028
3 | 6:40.29 | 4:57.45 | 30029 | 52348
4 | 11:37.74 | 4:56.15 | 52349 | 74563
5 | 16:34.14 | 4:06.05 | 74564 | 93018
6 | 20:40.19 | 2:02.02 | 93019 | 102170
7 | 22:42.21 | 2:57.60 | 102171 | 115505
8 | 25:40.06 | 4:07.14 | 115506 | 134044
9 | 29:47.20 | 1:45.50 | 134045 | 141969
10 | 31:32.70 | 2:29.12 | 141970 | 153156
11 | 34:02.07 | 1:45.42 | 153157 | 161073
12 | 35:47.49 | 5:07.35 | 161074 | 184133
13 | 40:55.09 | 1:23.57 | 184134 | 190415
14 | 42:18.66 | 3:06.19 | 190416 | 204384
15 | 45:25.10 | 5:17.30 | 204385 | 228189
16 | 50:42.40 | 2:23.49 | 228190 | 238963
17 | 53:06.14 | 5:11.16 | 238964 | 262304
18 | 58:17.30 | 2:14.47 | 262305 | 272401
19 | 60:32.02 | 2:00.24 | 272402 | 281425
20 | 62:32.26 | 4:34.15 | 281426 | 301990
Track 1
Filename D:\EAC\01 I Got It Bad.wav
Pre-gap length 0:00:02.00
Peak level 99.5 %
Extraction speed 1.5 X
Track quality 99.9 %
Test CRC B1D94C1E
Copy CRC B1D94C1E
Copy OK
Track 2
Filename D:\EAC\02 Define.wav
Pre-gap length 0:00:00.20
Peak level 92.9 %
Extraction speed 1.3 X
Track quality 99.9 %
Test CRC DB56CE1B
Copy CRC DB56CE1B
Copy OK
Track 3
Filename D:\EAC\03 Deliver.wav
Pre-gap length 0:00:02.00
Peak level 99.5 %
Extraction speed 2.0 X
Track quality 100.0 %
Test CRC 68D5E1EE
Copy CRC 68D5E1EE
Copy OK
Track 4
Filename D:\EAC\04 Gaze.wav
Pre-gap length 0:00:01.00
Peak level 99.5 %
Extraction speed 2.2 X
Track quality 100.0 %
Test CRC 55908345
Copy CRC 55908345
Copy OK
Track 5
Filename D:\EAC\05 Reclaim.wav
Pre-gap length 0:00:01.00
Peak level 99.5 %
Extraction speed 2.3 X
Track quality 100.0 %
Test CRC 98DD66BA
Copy CRC 98DD66BA
Copy OK
Track 6
Filename D:\EAC\06 Whisper.wav
Pre-gap length 0:00:02.00
Peak level 99.5 %
Extraction speed 2.1 X
Track quality 100.0 %
Test CRC 34420E89
Copy CRC 34420E89
Copy OK
Track 7
Filename D:\EAC\07 Collate.wav
Pre-gap length 0:00:00.50
Peak level 99.5 %
Extraction speed 2.3 X
Track quality 100.0 %
Test CRC 7CBF0340
Copy CRC 7CBF0340
Copy OK
Track 8
Filename D:\EAC\08 Search.wav
Pre-gap length 0:00:01.00
Peak level 99.5 %
Extraction speed 2.5 X
Track quality 100.0 %
Test CRC C5FFBB9C
Copy CRC C5FFBB9C
Copy OK
Track 9
Filename D:\EAC\09 Excavate.wav
Pre-gap length 0:00:00.10
Peak level 99.5 %
Extraction speed 2.2 X
Track quality 100.0 %
Test CRC 40343A58
Copy CRC 40343A58
Copy OK
Track 10
Filename D:\EAC\10 Heed.wav
Pre-gap length 0:00:01.00
Peak level 99.5 %
Extraction speed 2.5 X
Track quality 100.0 %
Test CRC 3093A19A
Copy CRC 3093A19A
Copy OK
Track 11
Filename D:\EAC\11 Intuit.wav
Pre-gap length 0:00:02.00
Peak level 99.5 %
Extraction speed 1.8 X
Track quality 99.8 %
Test CRC 4DEBBA45
Copy CRC 4DEBBA45
Copy OK
Track 12
Filename D:\EAC\12 Persuade.wav
Pre-gap length 0:00:00.10
Peak level 99.5 %
Extraction speed 2.9 X
Track quality 100.0 %
Test CRC DCCEDF1C
Copy CRC DCCEDF1C
Copy OK
Track 13
Filename D:\EAC\13 Pun.wav
Pre-gap length 0:00:01.00
Peak level 99.5 %
Extraction speed 2.3 X
Track quality 100.0 %
Test CRC 3B1715C9
Copy CRC 3B1715C9
Copy OK
Track 14
Filename D:\EAC\14 Disguise.wav
Pre-gap length 0:00:00.30
Peak level 99.5 %
Extraction speed 2.4 X
Track quality 99.9 %
Test CRC 62B6D366
Copy CRC 62B6D366
Copy OK
Track 15
Filename D:\EAC\15 Dodge.wav
Pre-gap length 0:00:01.00
Peak level 99.5 %
Extraction speed 2.9 X
Track quality 99.9 %
Test CRC B096A41A
Copy CRC B096A41A
Copy OK
Track 16
Filename D:\EAC\16 Flow.wav
Pre-gap length 0:00:00.70
Peak level 99.5 %
Extraction speed 2.8 X
Track quality 100.0 %
Test CRC 41F81478
Copy CRC 41F81478
Copy OK
Track 17
Filename D:\EAC\17 Redeem.wav
Pre-gap length 0:00:02.00
Peak level 99.5 %
Extraction speed 3.3 X
Track quality 100.0 %
Test CRC 07AFB4AE
Copy CRC 07AFB4AE
Copy OK
Track 18
Filename D:\EAC\18 Shift.wav
Pre-gap length 0:00:00.10
Peak level 99.5 %
Extraction speed 2.9 X
Track quality 100.0 %
Test CRC 56E7E8F4
Copy CRC 56E7E8F4
Copy OK
Track 19
Filename D:\EAC\19 Dash.wav
Pre-gap length 0:00:00.30
Peak level 99.5 %
Extraction speed 2.9 X
Track quality 100.0 %
Test CRC F9825E85
Copy CRC F9825E85
Copy OK
Track 20
Filename D:\EAC\20 Glow.wav
Pre-gap length 0:00:02.00
Peak level 99.5 %
Extraction speed 3.1 X
Track quality 99.9 %
Test CRC 3A4E7B93
Copy CRC 3A4E7B93
Copy OK
No errors occurred
End of status report
==== Log checksum 719205DB23D4BE637C3DA0072C17237BB8746CE2A04D216D1982F9C52FFD6B69 ====
 
Содержание индексной карты (.CUE)
REM GENRE Jazz
REM DATE 2013
REM DISCID 3E0FBA14
REM COMMENT "ExactAudioCopy v1.0b3"
PERFORMER "Assif Tsahar & Tatsuya Nakatani"
TITLE "I Got It Bad"
FILE "01 I Got It Bad.wav" WAVE
TRACK 01 AUDIO
TITLE "I Got It Bad"
PERFORMER "Assif Tsahar & Tatsuya Nakatani"
INDEX 01 00:00:00
TRACK 02 AUDIO
TITLE "Define"
PERFORMER "Assif Tsahar & Tatsuya Nakatani"
INDEX 00 04:43:45
FILE "02 Define.wav" WAVE
INDEX 01 00:00:00
TRACK 03 AUDIO
TITLE "Deliver"
PERFORMER "Assif Tsahar & Tatsuya Nakatani"
INDEX 00 01:54:39
FILE "03 Deliver.wav" WAVE
INDEX 01 00:00:00
TRACK 04 AUDIO
TITLE "Gaze"
PERFORMER "Assif Tsahar & Tatsuya Nakatani"
INDEX 00 04:56:45
FILE "04 Gaze.wav" WAVE
INDEX 01 00:00:00
TRACK 05 AUDIO
TITLE "Reclaim"
PERFORMER "Assif Tsahar & Tatsuya Nakatani"
INDEX 00 04:55:15
FILE "05 Reclaim.wav" WAVE
INDEX 01 00:00:00
TRACK 06 AUDIO
TITLE "Whisper"
PERFORMER "Assif Tsahar & Tatsuya Nakatani"
INDEX 00 04:04:05
FILE "06 Whisper.wav" WAVE
INDEX 01 00:00:00
TRACK 07 AUDIO
TITLE "Collate"
PERFORMER "Assif Tsahar & Tatsuya Nakatani"
INDEX 00 02:01:27
FILE "07 Collate.wav" WAVE
INDEX 01 00:00:00
TRACK 08 AUDIO
TITLE "Search"
PERFORMER "Assif Tsahar & Tatsuya Nakatani"
INDEX 00 02:56:60
FILE "08 Search.wav" WAVE
INDEX 01 00:00:00
TRACK 09 AUDIO
TITLE "Excavate"
PERFORMER "Assif Tsahar & Tatsuya Nakatani"
INDEX 00 04:07:04
FILE "09 Excavate.wav" WAVE
INDEX 01 00:00:00
TRACK 10 AUDIO
TITLE "Heed"
PERFORMER "Assif Tsahar & Tatsuya Nakatani"
INDEX 00 01:44:50
FILE "10 Heed.wav" WAVE
INDEX 01 00:00:00
TRACK 11 AUDIO
TITLE "Intuit"
PERFORMER "Assif Tsahar & Tatsuya Nakatani"
INDEX 00 02:27:12
FILE "11 Intuit.wav" WAVE
INDEX 01 00:00:00
TRACK 12 AUDIO
TITLE "Persuade"
PERFORMER "Assif Tsahar & Tatsuya Nakatani"
INDEX 00 01:45:32
FILE "12 Persuade.wav" WAVE
INDEX 01 00:00:00
TRACK 13 AUDIO
TITLE "Pun"
PERFORMER "Assif Tsahar & Tatsuya Nakatani"
INDEX 00 05:06:35
FILE "13 Pun.wav" WAVE
INDEX 01 00:00:00
TRACK 14 AUDIO
TITLE "Disguise"
PERFORMER "Assif Tsahar & Tatsuya Nakatani"
INDEX 00 01:23:27
FILE "14 Disguise.wav" WAVE
INDEX 01 00:00:00
TRACK 15 AUDIO
TITLE "Dodge"
PERFORMER "Assif Tsahar & Tatsuya Nakatani"
INDEX 00 03:05:19
FILE "15 Dodge.wav" WAVE
INDEX 01 00:00:00
TRACK 16 AUDIO
TITLE "Flow"
PERFORMER "Assif Tsahar & Tatsuya Nakatani"
INDEX 00 05:16:35
FILE "16 Flow.wav" WAVE
INDEX 01 00:00:00
TRACK 17 AUDIO
TITLE "Redeem"
PERFORMER "Assif Tsahar & Tatsuya Nakatani"
INDEX 00 02:21:49
FILE "17 Redeem.wav" WAVE
INDEX 01 00:00:00
TRACK 18 AUDIO
TITLE "Shift"
PERFORMER "Assif Tsahar & Tatsuya Nakatani"
INDEX 00 05:11:06
FILE "18 Shift.wav" WAVE
INDEX 01 00:00:00
TRACK 19 AUDIO
TITLE "Dash"
PERFORMER "Assif Tsahar & Tatsuya Nakatani"
INDEX 00 02:14:17
FILE "19 Dash.wav" WAVE
INDEX 01 00:00:00
TRACK 20 AUDIO
TITLE "Glow"
PERFORMER "Assif Tsahar & Tatsuya Nakatani"
INDEX 00 01:58:24
FILE "20 Glow.wav" WAVE
INDEX 01 00:00:00
Доп. информация: Recorded in Levontin 7 (TelAviv) by Assif Tsahar.
 
Об альбоме (сборнике)
"The third release for the collaboration of Assif and Tatsuya, each one is titled after a different Ellington's composition and on this one it is "I got it bad" which gets it's invocation betweens Tatsuya's bells and Assif's deep and dark tenor. What sets the tone for a mystical journey of 20 tracks full of moods fitting of a Tarkovsky film sound track. The two match tone colors and overtones with breaths of angular intervals to create a beautifully strange soundscape."-Hopscotch
 
Состав
Assif Tsahar-tenor saxophone, bass clarinet
Tatsuya Nakatani-percussion
По всем вопросам пишите личное сообщение пользователю M0p94ok.
07:40
170
Нет комментариев. Ваш будет первым!