Поиск

(Avant-Garde Jazz, Free Improvisation) [CD] Angles 8 - BY WAY OF DECEPTION - LIVE IN LJUBLJANA - 2011, APE (image+.cue), lossless

(Avant-Garde Jazz, Free Improvisation) [CD] Angles 8 - BY WAY OF DECEPTION - LIVE IN LJUBLJANA - 2011, APE (image+.cue), lossless
Angles 8 / BY WAY OF DECEPTION - LIVE IN LJUBLJANA
Жанр: Avant-Garde Jazz, Free Improvisation
Носитель: CD
Год издания: 2011
Издатель (лейбл): Clean Feed Records
Номер по каталогу: CF 256 CD
Аудиокодек: APE (*.ape)
Тип рипа: image+.cue
Битрейт аудио: lossless
Продолжительность: 70:48
Источник (релизер): Я
Наличие сканов в содержимом раздачи: нет
Треклист:
1. By Way Of Deception 19:23
2. Dactyloscopy 4:22
3. Today Is Better Than Tomorrow 9:17
4. Lets Speak About The Weather (And Not About The War) 7:40
5. Dont Ruin Me / Lets Tear The Threads Of Trust 30:06
 
Лог создания рипа
Exact Audio Copy V0.99 prebeta 4 from 23. January 2008
Отчёт EAC об извлечении, выполненном 6. января 2014, 17:30
Angles 8 / By way of Deception-Live in Ljubljana
Дисковод: TSSTcorpCDRWDVD TSL462D Adapter: 2 ID: 0
Режим чтения : Достоверность
Использование точного потока : Да
Отключение кэша аудио : Да
Использование указателей C2 : Нет
Коррекция смещения при чтении : 6
Способность читать области Lead-in и Lead-out : Нет
Заполнение пропущенных сэмплов тишиной : Да
Удаление блоков с тишиной в начале и конце : Нет
При вычислениях CRC использовались нулевые сэмплы : Да
Интерфейс : Встроенный Win32-интерфейс для Win NT/2000
Выходной формат : Внутренние WAV-операции
Формат сэмплов : 44.100 Гц; 16 бит; стерео
TOC извлечённого CD
Трек | Старт | Длительность | Начальный сектор | Конечный сектор
---------------------------------------------------------------------
1 | 0:00.00 | 19:23.36 | 0 | 87260
2 | 19:23.36 | 4:22.03 | 87261 | 106913
3 | 23:45.39 | 9:16.71 | 106914 | 148684
4 | 33:02.35 | 7:40.29 | 148685 | 183213
5 | 40:42.64 | 30:05.38 | 183214 | 318626
Характеристики диапазона извлечения и сообщения об ошибках
Выбранный диапазон
Имя файла I:\Music\ANGLES 8_BY WAY OF DECEPTION - LIVE IN LJUBLJANA_2011\Angles 8 - By way of Deception-Live in Ljubljana.wav
Пиковый уровень 98.8 %
Качество диапазона 100.0 %
CRC теста 460AF52B
CRC копии 460AF52B
Копирование... OK
Ошибок не произошло
AccurateRip: сводка
Трек 1 точность не определена (достоверность 2) [178A5969], AccurateRip вернул [9BE79E62]
Трек 2 точность не определена (достоверность 3) [B0499268], AccurateRip вернул [F80AEE7C]
Трек 3 точность не определена (достоверность 3) [FEE8D72B], AccurateRip вернул [FC25E623]
Трек 4 точность не определена (достоверность 3) [C68E9B4E], AccurateRip вернул [87C55F87]
Трек 5 точность не определена (достоверность 3) [1D20B873], AccurateRip вернул [B72ACF27]
Ни один трек не прошёл проверки на точность
В вашей базе может быть иной вариант штамповки диска
Конец отчёта
 
Содержание индексной карты (.CUE)
REM GENRE Jazz
REM DATE 2011
REM DISCID 41109805
REM COMMENT "ExactAudioCopy v0.99pb4"
PERFORMER "Angles 8"
TITLE "By way of Deception-Live in Ljubljana"
FILE "Angles 8 - By way of Deception-Live in Ljubljana.wav" WAVE
TRACK 01 AUDIO
TITLE "By way of Deception"
PERFORMER "Angles 8"
INDEX 01 00:00:00
TRACK 02 AUDIO
TITLE "Dactyloscopy"
PERFORMER "Angles 8"
INDEX 00 19:23:34
INDEX 01 19:23:36
TRACK 03 AUDIO
TITLE "Today is better than tomorrow"
PERFORMER "Angles 8"
INDEX 00 23:45:35
INDEX 01 23:45:39
TRACK 04 AUDIO
TITLE "Lets speak about the weather (and not about the war)"
PERFORMER "Angles 8"
INDEX 00 33:02:30
INDEX 01 33:02:35
TRACK 05 AUDIO
TITLE "Dont Ruin me\Lets tear the threads of trust"
PERFORMER "Angles 8"
INDEX 00 40:42:63
INDEX 01 40:42:64
 
Об альбоме (сборнике)
Ljubljana Jazz Festival, July 1, 2011
 
Состав
MATS ALEKLINT, trombone
GORAN KAJFES, trumpet
EIRIK HEGDAL, baritone & soprano sax
MARTIN K?CHEN, alto sax
MATTIAS ST?HL, vibraphone
ALEXANDER ZETHSON, piano
JOHAN BERTHLING, bass
KJELL NORDESON, drums
22:03
317
Нет комментариев. Ваш будет первым!