Вы используете незарегистрированную версию компонента "Вкладки"!

Поиск

(Avant-Garde Jazz, Free Improvisation) Carlo Actis Dato, Baldo Martinez - Folklore Imaginario - 2005, FLAC (tracks+.cue), lossless

(Avant-Garde Jazz, Free Improvisation) Carlo Actis Dato, Baldo Martinez - Folklore Imaginario - 2005, FLAC (tracks+.cue), lossless
Треклист:
Carlo Actis Dato, Baldo Martinez / Folklore Imaginario
Жанр: Avant-Garde Jazz, Free Improvisation
Страна-производитель диска: UK
Год издания диска: 2005
Издатель (лейбл): Leo Records
Номер по каталогу: CD LR 437
Аудиокодек: FLAC (*.flac)
Тип рипа: tracks+.cue
Битрейт аудио: lossless
Продолжительность: 54:23
Источник (релизер): what.cd (groober)
Наличие сканов в содержимом раздачи: нет
Треклист:
1 Sospeita 7:19
2 Ashanti 6:11
3 Company Segundo 6:48
4 A Bocca Da Ria 6:20
5 Luna Park 6:02
6 Vejo Elmer 8:54
7 Festa 4:55
8 Mandingo 7:51
 
Лог создания рипа
Exact Audio Copy V0.99 prebeta 4 from 23. January 2008
EAC extraction logfile from 13. November 2009, 11:53
Carlo Actis Dato / Folklore Imaginario
Used drive : Optiarc DVD RW AD-7200A Adapter: 0 ID: 1
Read mode : Secure
Utilize accurate stream : Yes
Defeat audio cache : Yes
Make use of C2 pointers : No
Read offset correction : 48
Overread into Lead-In and Lead-Out : No
Fill up missing offset samples with silence : Yes
Delete leading and trailing silent blocks : No
Null samples used in CRC calculations : Yes
Used interface : Installed external ASPI interface
Gap handling : Appended to previous track
Used output format : User Defined Encoder
Selected bitrate : 1024 kBit/s
Quality : High
Add ID3 tag : No
Command line compressor : C:\Program Files\Exact Audio Copy\flac.exe
Additional command line options : -8 -A tukey(0.25) -A gauss(0.1875) -b 4096 -V -T "artist=%a" -T "title=%t" -T "album=%g" -T "date=%y" -T "tracknumber=%n" -T "genre=%m" %s --sector-align
TOC of the extracted CD
Track | Start | Length | Start sector | End sector
---------------------------------------------------------
1 | 0:00.00 | 7:19.21 | 0 | 32945
2 | 7:19.21 | 6:11.54 | 32946 | 60824
3 | 13:31.00 | 6:48.16 | 60825 | 91440
4 | 20:19.16 | 6:20.38 | 91441 | 119978
5 | 26:39.54 | 6:02.03 | 119979 | 147131
6 | 32:41.57 | 8:54.01 | 147132 | 187182
7 | 41:35.58 | 4:55.50 | 187183 | 209357
8 | 46:31.33 | 7:51.09 | 209358 | 244691
Track 1
Filename H:\Carlo Actis Dato - Folklore Imaginario\01 - Carlo Actis Dato - Sospeita .wav
Pre-gap length 0:00:02.00
Peak level 94.4 %
Track quality 100.0 %
Test CRC 4625694F
Copy CRC 4625694F
Track not present in AccurateRip database
Copy OK
Track 2
Filename H:\Carlo Actis Dato - Folklore Imaginario\02 - Carlo Actis Dato - Ashanti .wav
Peak level 94.4 %
Track quality 100.0 %
Test CRC 54B0371E
Copy CRC 54B0371E
Track not present in AccurateRip database
Copy OK
Track 3
Filename H:\Carlo Actis Dato - Folklore Imaginario\03 - Carlo Actis Dato - Company Segundo .wav
Peak level 94.2 %
Track quality 100.0 %
Test CRC D40EFE91
Copy CRC D40EFE91
Track not present in AccurateRip database
Copy OK
Track 4
Filename H:\Carlo Actis Dato - Folklore Imaginario\04 - Carlo Actis Dato - A Bocca da Ria .wav
Peak level 94.4 %
Track quality 100.0 %
Test CRC 44558B02
Copy CRC 44558B02
Track not present in AccurateRip database
Copy OK
Track 5
Filename H:\Carlo Actis Dato - Folklore Imaginario\05 - Carlo Actis Dato - Luna Park .wav
Peak level 93.1 %
Track quality 100.0 %
Test CRC ABA478F0
Copy CRC ABA478F0
Track not present in AccurateRip database
Copy OK
Track 6
Filename H:\Carlo Actis Dato - Folklore Imaginario\06 - Carlo Actis Dato - Vejo Elmer .wav
Peak level 94.4 %
Track quality 100.0 %
Test CRC D5A5A7C9
Copy CRC D5A5A7C9
Track not present in AccurateRip database
Copy OK
Track 7
Filename H:\Carlo Actis Dato - Folklore Imaginario\07 - Carlo Actis Dato - Festa .wav
Peak level 92.8 %
Track quality 100.0 %
Test CRC 9732CDC4
Copy CRC 9732CDC4
Track not present in AccurateRip database
Copy OK
Track 8
Filename H:\Carlo Actis Dato - Folklore Imaginario\08 - Carlo Actis Dato - Mandingo .wav
Peak level 94.4 %
Track quality 100.0 %
Test CRC 66C622AD
Copy CRC 66C622AD
Track not present in AccurateRip database
Copy OK
None of the tracks are present in the AccurateRip database
No errors occurred
End of status report
 
Содержание индексной карты (.CUE)
REM DISCID 630CBE08
REM COMMENT "ExactAudioCopy v0.99pb4"
PERFORMER "Carlo Actis Dato"
TITLE "Folklore Imaginario"
FILE "01 - Carlo Actis Dato - Sospeita .wav" WAVE
TRACK 01 AUDIO
TITLE "Sospeita"
PERFORMER "Carlo Actis Dato"
INDEX 01 00:00:00
FILE "02 - Carlo Actis Dato - Ashanti .wav" WAVE
TRACK 02 AUDIO
TITLE "Ashanti"
PERFORMER "Carlo Actis Dato"
INDEX 01 00:00:00
FILE "03 - Carlo Actis Dato - Company Segundo .wav" WAVE
TRACK 03 AUDIO
TITLE "Company Segundo"
PERFORMER "Carlo Actis Dato"
INDEX 01 00:00:00
FILE "04 - Carlo Actis Dato - A Bocca da Ria .wav" WAVE
TRACK 04 AUDIO
TITLE "A Bocca da Ria"
PERFORMER "Carlo Actis Dato"
INDEX 01 00:00:00
FILE "05 - Carlo Actis Dato - Luna Park .wav" WAVE
TRACK 05 AUDIO
TITLE "Luna Park"
PERFORMER "Carlo Actis Dato"
INDEX 01 00:00:00
FILE "06 - Carlo Actis Dato - Vejo Elmer .wav" WAVE
TRACK 06 AUDIO
TITLE "Vejo Elmer"
PERFORMER "Carlo Actis Dato"
INDEX 01 00:00:00
FILE "07 - Carlo Actis Dato - Festa .wav" WAVE
TRACK 07 AUDIO
TITLE "Festa"
PERFORMER "Carlo Actis Dato"
INDEX 01 00:00:00
FILE "08 - Carlo Actis Dato - Mandingo .wav" WAVE
TRACK 08 AUDIO
TITLE "Mandingo"
PERFORMER "Carlo Actis Dato"
INDEX 01 00:00:00
Доп. информация: Recorded on 27/28 May 2004 at Infinity Studios, Madrid
 
Об альбоме (сборнике)
There is no limit to the imagination of Carlo Actis Dato, one of the best saxophonists in Europe, and just about the only European saxophonist featured in the American jazz critics polls. This time Carlo Actis Dato comes up with a new concept realized with his long time partner, a brilliant conceptualist, composer and bass player from Spain: Baldo Martinez. The title of the CD speaks for itself, the music being a hot mix of ethnic sounds presented in the context of jazz improvisation.
 
Состав
Acoustic Bass – Baldo Martinez
Baritone Saxophone, Bass Clarinet – Carlo Actis Dato
Any questions -> support@pro-jazz.com. По всем вопросам пишите -> support@pro-jazz.com
21:51
188
Нет комментариев. Ваш будет первым!