Вы используете незарегистрированную версию компонента "Вкладки"!

Поиск

(Avant-Garde Jazz, Free Improvisation) Burton Greene Trio - On Tour {1966} - 2005, FLAC (tracks+.cue), lossless

(Avant-Garde Jazz, Free Improvisation) Burton Greene Trio - On Tour {1966} - 2005, FLAC (tracks+.cue), lossless
Треклист:
♦ Burton Greene Trio - On Tour {1966} ♦
Жанр: Avant-Garde Jazz, Free Improvisation
Страна-производитель диска: Germany
Год издания: 2005
Издатель (лейбл): ESP
Номер по каталогу: 1074-2
Аудиокодек: FLAC (*.flac)
Тип рипа: tracks+.cue
Битрейт аудио: lossless
Продолжительность: 00:46:33
Источник (релизер): Рип с диска.
Наличие сканов в содержимом раздачи: да
Треклист:
01. Bloom in the Commune [10:33]
02. Ascent [11:35]
03. Tree Theme [12:50]
04. Transcendence [11:34]
 
Лог создания рипа
Exact Audio Copy V1.0 beta 3 from 29. August 2011
EAC extraction logfile from 27. March 2013, 14:22
Burton Greene Trio / On Tour
Used drive : Optiarc DVD RW AD-5200A Adapter: 0 ID: 0
Read mode : Secure
Utilize accurate stream : Yes
Defeat audio cache : Yes
Make use of C2 pointers : No
Read offset correction : 48
Overread into Lead-In and Lead-Out : No
Fill up missing offset samples with silence : Yes
Delete leading and trailing silent blocks : No
Null samples used in CRC calculations : Yes
Used interface : Native Win32 interface for Win NT & 2000
Gap handling : Appended to previous track
Used output format : User Defined Encoder
Selected bitrate : 128 kBit/s
Quality : High
Add ID3 tag : No
Command line compressor : C:\Program Files\Exact Audio Copy\Flac\flac.exe
Additional command line options : -V -8 -T "Genre=%genre%" -T "Artist=%artist%" -T "Title=%title%" -T "Album=%albumtitle%" -T "Date=%year%" -T "Tracknumber=%tracknr%" -T "Comment=%comment%" %source%
TOC of the extracted CD
Track | Start | Length | Start sector | End sector
---------------------------------------------------------
1 | 0:00.00 | 10:33.55 | 0 | 47529
2 | 10:33.55 | 11:35.00 | 47530 | 99654
3 | 22:08.55 | 12:50.17 | 99655 | 157421
4 | 34:58.72 | 11:34.23 | 157422 | 209494
Track 1
Filename F:\2005.Burton Greene Trio - On Tour\01. Bloom in the Commune.wav
Pre-gap length 0:00:02.00
Peak level 90.9 %
Extraction speed 2.6 X
Track quality 100.0 %
Test CRC E369B960
Copy CRC E369B960
Track not present in AccurateRip database
Copy OK
Track 2
Filename F:\2005.Burton Greene Trio - On Tour\02. Ascent.wav
Pre-gap length 0:00:02.20
Peak level 92.8 %
Extraction speed 3.3 X
Track quality 100.0 %
Test CRC BF4E8218
Copy CRC BF4E8218
Track not present in AccurateRip database
Copy OK
Track 3
Filename F:\2005.Burton Greene Trio - On Tour\03. Tree Theme.wav
Pre-gap length 0:00:11.53
Peak level 90.1 %
Extraction speed 3.6 X
Track quality 99.9 %
Test CRC B8565624
Copy CRC B8565624
Track not present in AccurateRip database
Copy OK
Track 4
Filename F:\2005.Burton Greene Trio - On Tour\04. Transcendence.wav
Pre-gap length 0:00:02.37
Peak level 87.5 %
Extraction speed 3.8 X
Track quality 100.0 %
Test CRC 8B08F890
Copy CRC 8B08F890
Track not present in AccurateRip database
Copy OK
None of the tracks are present in the AccurateRip database
No errors occurred
End of status report
==== Log checksum CFAFCFE5B6A06293AB64DF258C8888EEFD8F7ADC823F1CCD3B45FE3323C66504 ====
 
Содержание индексной карты (.CUE)
REM GENRE Jazz
REM DATE 1967
REM DISCID 1A0AE904
REM COMMENT "ExactAudioCopy v1.0b3"
PERFORMER "Burton Greene Trio"
TITLE "On Tour"
FILE "01. Bloom in the Commune.wav" WAVE
TRACK 01 AUDIO
TITLE "Bloom in the Commune"
PERFORMER "Burton Greene Trio"
INDEX 01 00:00:00
TRACK 02 AUDIO
TITLE "Ascent"
PERFORMER "Burton Greene Trio"
INDEX 00 10:31:35
FILE "02. Ascent.wav" WAVE
INDEX 01 00:00:00
TRACK 03 AUDIO
TITLE "Tree Theme"
PERFORMER "Burton Greene Trio"
INDEX 00 11:23:22
FILE "03. Tree Theme.wav" WAVE
INDEX 01 00:00:00
TRACK 04 AUDIO
TITLE "Transcendence"
PERFORMER "Burton Greene Trio"
INDEX 00 12:47:55
FILE "04. Transcendence.wav" WAVE
INDEX 01 00:00:00
 
Состав
Personnel:
Burton Greene - p, piano harp
Steve Tintweiss - b
Shelly Rusten - percussion
Any questions -> support@pro-jazz.com. По всем вопросам пишите -> support@pro-jazz.com
10:23
154
Нет комментариев. Ваш будет первым!