Вы используете незарегистрированную версию компонента "Вкладки"!

Поиск

(Avant-Garde Jazz, Free Improvisation) Brad Dutz Obliteration Percussion Quartet - Brad Dutz Obliteration Percussion Quartet - 2001, FLAC (tracks+.cue), lossless

(Avant-Garde Jazz, Free Improvisation) Brad Dutz Obliteration Percussion Quartet - Brad Dutz Obliteration Percussion Quartet - 2001, FLAC (tracks+.cue), lossless
Треклист:
Brad Dutz Obliteration Percussion Quartet / Brad Dutz Obliteration Percussion Quartet
Жанр: Avant-Garde Jazz, Free Improvisation
Страна-производитель диска: US
Год издания: 2001
Издатель (лейбл): unknown
Номер по каталогу: #5594
Страна: US
Аудиокодек: FLAC (*.flac)
Тип рипа: tracks+.cue
Битрейт аудио: lossless
Продолжительность: 73:51
Источник (релизер): свой фирменный диск
Наличие сканов в содержимом раздачи: нет
Треклист:
1 What Ever Happened To The Station Wagon? 12:03
2 Japanese Toy Balloons 0:45
3 Constant Machinery 8:46
4 Many Cowbells 1:00
5 Salt For The Losers 8:22
6 Charred Broilers, Chilled Boilers 6:20
7 Many Whistles 1:36
8 Groupings 6:07
9 Moist Desert 8:52
10 Many Membranes 1:45
11 Wilted Salad In The Parlour 6:23
12 Dry Steam 5:03
13 Many Bowls And Mallets 1:11
14 Noodle Chest 5:38
 
Лог создания рипа
Exact Audio Copy V1.0 beta 3 from 29. August 2011
EAC extraction logfile from 28. December 2012, 22:54
Brad Dutz Obliteration Percussion Quartet / Brad Dutz Obliteration Percussion Quartet
Used drive : PIONEER DVD-RW DVR-115D Adapter: 0 ID: 0
Read mode : Secure
Utilize accurate stream : Yes
Defeat audio cache : Yes
Make use of C2 pointers : No
Read offset correction : 48
Overread into Lead-In and Lead-Out : No
Fill up missing offset samples with silence : Yes
Delete leading and trailing silent blocks : No
Null samples used in CRC calculations : Yes
Used interface : Installed external ASPI interface
Gap handling : Appended to previous track
Used output format : User Defined Encoder
Selected bitrate : 896 kBit/s
Quality : High
Add ID3 tag : No
Command line compressor : C:\Program Files\Exact Audio Copy\FLAC\FLAC.EXE
Additional command line options : -6 -V -T "ARTIST=%artist%" -T "TITLE=%title%" -T "ALBUM=%albumtitle%" -T "DATE=%year%" -T "TRACKNUMBER=%tracknr%" -T "GENRE=%genre%" -T "COMMENT=%comment%" -T "BAND=%albuminterpret%" -T "COMPOSER=%composer%" %haslyrics%--tag-from-file=LYRICS="%lyricsfile%"%haslyrics% -T "DISCNUMBER=%cdnumber%" -T "TOTALDISCS=%totalcds%" -T "TOTALTRACKS=%numtracks%" %hascover%--picture="%coverfile%"%hascover% %source% -o %dest%
TOC of the extracted CD
Track | Start | Length | Start sector | End sector
---------------------------------------------------------
1 | 0:00.00 | 12:02.66 | 0 | 54215
2 | 12:02.66 | 0:45.28 | 54216 | 57618
3 | 12:48.19 | 8:45.61 | 57619 | 97054
4 | 21:34.05 | 0:59.38 | 97055 | 101517
5 | 22:33.43 | 8:21.58 | 101518 | 139150
6 | 30:55.26 | 6:20.06 | 139151 | 167656
7 | 37:15.32 | 1:35.70 | 167657 | 174851
8 | 38:51.27 | 6:06.40 | 174852 | 202341
9 | 44:57.67 | 8:52.15 | 202342 | 242256
10 | 53:50.07 | 1:45.29 | 242257 | 250160
11 | 55:35.36 | 6:23.23 | 250161 | 278908
12 | 61:58.59 | 5:03.24 | 278909 | 301657
13 | 67:02.08 | 1:11.21 | 301658 | 307003
14 | 68:13.29 | 5:38.08 | 307004 | 332361
Track 1
Filename D:\zzz\01 - What Ever Happened To The Station Wagon.wav
Pre-gap length 0:00:02.00
Peak level 100.0 %
Extraction speed 5.6 X
Track quality 100.0 %
Test CRC 62BAA0B4
Copy CRC 62BAA0B4
Track not present in AccurateRip database
Copy OK
Track 2
Filename D:\zzz\02 - Japanese Toy Balloons.wav
Pre-gap length 0:00:01.45
Peak level 68.1 %
Extraction speed 3.7 X
Track quality 100.0 %
Test CRC 63149E2F
Copy CRC 63149E2F
Track not present in AccurateRip database
Copy OK
Track 3
Filename D:\zzz\03 - Constant Machinery.wav
Pre-gap length 0:00:03.45
Peak level 99.8 %
Extraction speed 6.6 X
Track quality 100.0 %
Test CRC 520D9922
Copy CRC 520D9922
Track not present in AccurateRip database
Copy OK
Track 4
Filename D:\zzz\04 - Many Cowbells.wav
Pre-gap length 0:00:02.45
Peak level 98.0 %
Extraction speed 4.7 X
Track quality 100.0 %
Test CRC 4677FE02
Copy CRC 4677FE02
Track not present in AccurateRip database
Copy OK
Track 5
Filename D:\zzz\05 - Salt For The Losers.wav
Pre-gap length 0:00:03.45
Peak level 99.8 %
Extraction speed 7.3 X
Track quality 100.0 %
Test CRC 843CB628
Copy CRC 843CB628
Track not present in AccurateRip database
Copy OK
Track 6
Filename D:\zzz\06 - Charred Broilers, Chilled Boilers.wav
Pre-gap length 0:00:02.05
Peak level 99.9 %
Extraction speed 7.6 X
Track quality 100.0 %
Test CRC 032B58DB
Copy CRC 032B58DB
Track not present in AccurateRip database
Copy OK
Track 7
Filename D:\zzz\07 - Many Whistles.wav
Pre-gap length 0:00:03.44
Peak level 71.3 %
Extraction speed 4.9 X
Track quality 99.8 %
Test CRC BB913A57
Copy CRC BB913A57
Track not present in AccurateRip database
Copy OK
Track 8
Filename D:\zzz\08 - Groupings.wav
Pre-gap length 0:00:03.46
Peak level 99.8 %
Extraction speed 7.4 X
Track quality 99.9 %
Test CRC CCCE2957
Copy CRC CCCE2957
Track not present in AccurateRip database
Copy OK
Track 9
Filename D:\zzz\09 - Moist Desert.wav
Pre-gap length 0:00:03.45
Peak level 99.8 %
Extraction speed 8.3 X
Track quality 99.9 %
Test CRC D290D1FE
Copy CRC D290D1FE
Track not present in AccurateRip database
Copy OK
Track 10
Filename D:\zzz\10 - Many Membranes.wav
Pre-gap length 0:00:01.70
Peak level 99.8 %
Extraction speed 7.3 X
Track quality 100.0 %
Test CRC AB20DC1F
Copy CRC AB20DC1F
Track not present in AccurateRip database
Copy OK
Track 11
Filename D:\zzz\11 - Wilted Salad In The Parlour.wav
Pre-gap length 0:00:02.25
Peak level 99.8 %
Extraction speed 9.0 X
Track quality 100.0 %
Test CRC 71319B3C
Copy CRC 71319B3C
Track not present in AccurateRip database
Copy OK
Track 12
Filename D:\zzz\12 - Dry Steam.wav
Pre-gap length 0:00:03.45
Peak level 97.1 %
Extraction speed 9.2 X
Track quality 100.0 %
Test CRC E975D454
Copy CRC E975D454
Track not present in AccurateRip database
Copy OK
Track 13
Filename D:\zzz\13 - Many Bowls And Mallets.wav
Pre-gap length 0:00:02.45
Peak level 80.6 %
Extraction speed 6.9 X
Track quality 100.0 %
Test CRC 6F359949
Copy CRC 6F359949
Track not present in AccurateRip database
Copy OK
Track 14
Filename D:\zzz\14 - Noodle Chest.wav
Pre-gap length 0:00:02.05
Peak level 99.8 %
Extraction speed 9.5 X
Track quality 100.0 %
Test CRC B49C75D4
Copy CRC B49C75D4
Track not present in AccurateRip database
Copy OK
None of the tracks are present in the AccurateRip database
No errors occurred
End of status report
==== Log checksum 846CD255D7083D68EA82129B84E5F2CF2AC46989C96120C0299A132CC6EE9CD2 ====
 
Содержание индексной карты (.CUE)
REM GENRE Avantgarde
REM DATE 2001
REM DISCID C7114F0E
REM COMMENT "ExactAudioCopy v1.0b3"
PERFORMER "Brad Dutz Obliteration Percussion Quartet"
TITLE "Brad Dutz Obliteration Percussion Quartet"
FILE "01 - What Ever Happened To The Station Wagon.wav" WAVE
TRACK 01 AUDIO
TITLE "What Ever Happened To The Station Wagon?"
PERFORMER "Brad Dutz Obliteration Percussion Quartet"
FLAGS DCP
INDEX 01 00:00:00
TRACK 02 AUDIO
TITLE "Japanese Toy Balloons"
PERFORMER "Brad Dutz Obliteration Percussion Quartet"
FLAGS DCP
INDEX 00 12:01:21
FILE "02 - Japanese Toy Balloons.wav" WAVE
INDEX 01 00:00:00
TRACK 03 AUDIO
TITLE "Constant Machinery"
PERFORMER "Brad Dutz Obliteration Percussion Quartet"
FLAGS DCP
INDEX 00 00:41:58
FILE "03 - Constant Machinery.wav" WAVE
INDEX 01 00:00:00
TRACK 04 AUDIO
TITLE "Many Cowbells"
PERFORMER "Brad Dutz Obliteration Percussion Quartet"
FLAGS DCP
INDEX 00 08:43:16
FILE "04 - Many Cowbells.wav" WAVE
INDEX 01 00:00:00
TRACK 05 AUDIO
TITLE "Salt For The Losers"
PERFORMER "Brad Dutz Obliteration Percussion Quartet"
FLAGS DCP
INDEX 00 00:55:68
FILE "05 - Salt For The Losers.wav" WAVE
INDEX 01 00:00:00
TRACK 06 AUDIO
TITLE "Charred Broilers, Chilled Boilers"
PERFORMER "Brad Dutz Obliteration Percussion Quartet"
FLAGS DCP
INDEX 00 08:19:53
FILE "06 - Charred Broilers, Chilled Boilers.wav" WAVE
INDEX 01 00:00:00
TRACK 07 AUDIO
TITLE "Many Whistles"
PERFORMER "Brad Dutz Obliteration Percussion Quartet"
FLAGS DCP
INDEX 00 06:16:37
FILE "07 - Many Whistles.wav" WAVE
INDEX 01 00:00:00
TRACK 08 AUDIO
TITLE "Groupings"
PERFORMER "Brad Dutz Obliteration Percussion Quartet"
FLAGS DCP
INDEX 00 01:32:24
FILE "08 - Groupings.wav" WAVE
INDEX 01 00:00:00
TRACK 09 AUDIO
TITLE "Moist Desert"
PERFORMER "Brad Dutz Obliteration Percussion Quartet"
FLAGS DCP
INDEX 00 06:02:70
FILE "09 - Moist Desert.wav" WAVE
INDEX 01 00:00:00
TRACK 10 AUDIO
TITLE "Many Membranes"
PERFORMER "Brad Dutz Obliteration Percussion Quartet"
FLAGS DCP
INDEX 00 08:50:20
FILE "10 - Many Membranes.wav" WAVE
INDEX 01 00:00:00
TRACK 11 AUDIO
TITLE "Wilted Salad In The Parlour"
PERFORMER "Brad Dutz Obliteration Percussion Quartet"
FLAGS DCP
INDEX 00 01:43:04
FILE "11 - Wilted Salad In The Parlour.wav" WAVE
INDEX 01 00:00:00
TRACK 12 AUDIO
TITLE "Dry Steam"
PERFORMER "Brad Dutz Obliteration Percussion Quartet"
FLAGS DCP
INDEX 00 06:19:53
FILE "12 - Dry Steam.wav" WAVE
INDEX 01 00:00:00
TRACK 13 AUDIO
TITLE "Many Bowls And Mallets"
PERFORMER "Brad Dutz Obliteration Percussion Quartet"
FLAGS DCP
INDEX 00 05:00:54
FILE "13 - Many Bowls And Mallets.wav" WAVE
INDEX 01 00:00:00
TRACK 14 AUDIO
TITLE "Noodle Chest"
PERFORMER "Brad Dutz Obliteration Percussion Quartet"
FLAGS DCP
INDEX 00 01:09:16
FILE "14 - Noodle Chest.wav" WAVE
INDEX 01 00:00:00
 
Лог проверки качества
d:\>d:\aucdtect -d/-m0 d:\zzz\*.wav
auCDtect: CD records authenticity detector, version 0.8.2
Copyright (c) 2004 Oleg Berngardt. All rights reserved.
Copyright (c) 2004 Alexander Djourik. All rights reserved.
------------------------------------------------------------
Processing file: [01. What Ever Happened To The Station Wagon.wav]
------------------------------------------------------------
This track looks like CDDA with probability 100%
------------------------------------------------------------
Processing file: [02. Japanese Toy Balloons.wav]
------------------------------------------------------------
This track looks like CDDA with probability 100%
------------------------------------------------------------
Processing file: [03. Constant Machinery.wav]
------------------------------------------------------------
This track looks like CDDA with probability 100%
------------------------------------------------------------
Processing file: [04. Many Cowbells.wav]
------------------------------------------------------------
This track looks like CDDA with probability 100%
------------------------------------------------------------
Processing file: [05. Salt For The Losers.wav]
------------------------------------------------------------
This track looks like CDDA with probability 100%
------------------------------------------------------------
Processing file: [06. Charred Broilers, Chilled Boilers.wav]
------------------------------------------------------------
This track looks like CDDA with probability 100%
------------------------------------------------------------
Processing file: [07. Many Whistles.wav]
------------------------------------------------------------
This track looks like CDDA with probability 100%
------------------------------------------------------------
Processing file: [08. Groupings.wav]
------------------------------------------------------------
This track looks like CDDA with probability 100%
------------------------------------------------------------
Processing file: [09. Moist Desert.wav]
------------------------------------------------------------
This track looks like CDDA with probability 100%
------------------------------------------------------------
Processing file: [10. Many Membranes.wav]
------------------------------------------------------------
This track looks like CDDA with probability 100%
------------------------------------------------------------
Processing file: [11. Wilted Salad In The Parlour.wav]
------------------------------------------------------------
This track looks like CDDA with probability 100%
------------------------------------------------------------
Processing file: [12. Dry Steam.wav]
------------------------------------------------------------
This track looks like CDDA with probability 100%
------------------------------------------------------------
Processing file: [13. Many Bowls And Mallets.wav]
------------------------------------------------------------
This track looks like CDDA with probability 100%
------------------------------------------------------------
Processing file: [14. Noodle Chest.wav]
------------------------------------------------------------
This track looks like CDDA with probability 100%
------------------------------------------------------------
Final Conclusion:
------------------------------------------------------------
These tracks looks like CDDA with probability 100%
Доп. информация:
 
Jazzreview.com
Some recordings move past all boundaries. This is one of them. Percussionist Brad Dutz, a veteran of numerous recordings and film scores, and a fixture on the LA underground jazz scene, has assembled a quartet that explores the pure realm of sound. Playing a host of percussion instruments and found objects (bottle caps, bundt pans, cookie sheets, etc.), the quartet creates a rhythmic collage that is also highly melodic. Each composition is more than a collection of sounds thrown together, but tells a story much like the African drumming traditions do. The closest point of reference here is Swiss drummer Pierre Favre’s 1984 ECM percussion quartet recording, "Singing Drums," which also evoked natural sounds and stimulated the imagination.
The opening "What Ever Happened To The Station Wagon" starts with scraped sounds, then works into muted bell and gong tones. There is a feeling of momentum in the playing, where the instruments move in and out of the sound field, keeping the ear interested. You get a sense that each percussionist is carefully choosing their sounds, rather than just playing on anything. The composition evolves over 12 minutes and never loses interest.
The short, "Japanese Toy Balloons," is a playful improv of buzzing sounds. "Constant Machinery" starts with repeating rhythmic cycles that suggest the clockwork dance of a factory. Various metallic sounds move in and out, constantly evolving and changing. "Moist desert" is a quiet piece featuring shakers and gongs. It evokes the mystery and expanse of the desert with sounds reminiscent of insects, animals, and the night sky. "Dry Steam" features both muted and unmuted gongs that give way to shakers and rattles.
These fourteen tracks cover a lot of ground and reveal much about the landscape of percussion. Brad Dutz has put together a compelling set. This is highly recommended adventurous music for adventurous listeners.
 
Состав
Percussion – Brad Dutz, Dan Morris, David Shafer (tracks: 11, 14), John Holmes (4) (tracks: 1 to 10, 12, 13), Joseph Berardi
Any questions -> support@pro-jazz.com. По всем вопросам пишите -> support@pro-jazz.com
07:01
159
Нет комментариев. Ваш будет первым!