Вы используете незарегистрированную версию компонента "Вкладки"!

Поиск

(Avant-Garde Jazz, Free Improvisation, Big Band) [CD] Circulasione Totale Orchestra - Accent - 1988, FLAC (tracks+.cue), lossless

(Avant-Garde Jazz, Free Improvisation, Big Band) [CD] Circulasione Totale Orchestra - Accent - 1988, FLAC (tracks+.cue), lossless
Треклист:
Circulasione Totale Orchestra / Accent
Жанр: Avant-Garde Jazz, Free Improvisation, Big Band
Носитель: CD
Страна-производитель диска (релиза): Norway
Год издания: 1988
Издатель (лейбл): Odin Records
Номер по каталогу: NJ 4025-2
Страна исполнителя (группы): Norway
Аудиокодек: FLAC (*.flac)
Тип рипа: tracks+.cue
Битрейт аудио: lossless
Продолжительность: 48:45
Источник (релизер): waffles.fm, Fredinho
Наличие сканов в содержимом раздачи:
Треклист:
1 New Keys 3:56
2 Happy House 3:05
3 J⁷ 6:04
4 Duo 3:54
5 BKB 5:29
6 Cherry's Cherry 6:26
7 Trio 2:21
8 Poem For Albert 9:17
9 O.C. On TV 5:55
10 Quartet 1:45
 
Лог создания рипа
Exact Audio Copy V1.0 beta 3 from 29. August 2011
EAC extraction logfile from 18. September 2014, 1:49
Circulasione Totale Orchestra / Accent
Used drive : MATSHITABD-CMB UJ160 Adapter: 0 ID: 0
Read mode : Secure
Utilize accurate stream : Yes
Defeat audio cache : Yes
Make use of C2 pointers : No
Read offset correction : 103
Overread into Lead-In and Lead-Out : No
Fill up missing offset samples with silence : Yes
Delete leading and trailing silent blocks : No
Null samples used in CRC calculations : Yes
Used interface : Native Win32 interface for Win NT & 2000
Gap handling : Appended to previous track
Used output format : User Defined Encoder
Selected bitrate : 1024 kBit/s
Quality : High
Add ID3 tag : No
Command line compressor : C:\Program Files (x86)\Exact Audio Copy\Flac\flac.exe
Additional command line options : -8 -V -T "artist=%artist%" -T "title=%title%" -T "album=%albumtitle%" -T "date=%year%" -T "tracknumber=%tracknr%" -T "genre=%genre%" %source%
TOC of the extracted CD
Track | Start | Length | Start sector | End sector
---------------------------------------------------------
1 | 0:00.00 | 3:59.00 | 0 | 17924
2 | 3:59.00 | 3:09.00 | 17925 | 32099
3 | 7:08.00 | 6:08.00 | 32100 | 59699
4 | 13:16.00 | 3:56.62 | 59700 | 77461
5 | 17:12.62 | 5:32.13 | 77462 | 102374
6 | 22:45.00 | 6:30.17 | 102375 | 131641
7 | 29:15.17 | 2:24.55 | 131642 | 142496
8 | 31:39.72 | 9:21.03 | 142497 | 184574
9 | 41:01.00 | 5:59.00 | 184575 | 211499
10 | 47:00.00 | 1:45.25 | 211500 | 219399
Track 1
Filename C:\EAC Rips\Circulasione Totale Orchestra - Accent (1988) [FLAC]\01 - New Keys.wav
Pre-gap length 0:00:02.00
Peak level 100.0 %
Extraction speed 2.4 X
Track quality 100.0 %
Test CRC 234F9239
Copy CRC 234F9239
Accurately ripped (confidence 1) [ADD38320] (AR v1)
Copy OK
Track 2
Filename C:\EAC Rips\Circulasione Totale Orchestra - Accent (1988) [FLAC]\02 - Happy House.wav
Pre-gap length 0:00:02.51
Peak level 93.2 %
Extraction speed 2.6 X
Track quality 100.0 %
Test CRC C39182F7
Copy CRC C39182F7
Accurately ripped (confidence 1) [74CDC1E6] (AR v1)
Copy OK
Track 3
Filename C:\EAC Rips\Circulasione Totale Orchestra - Accent (1988) [FLAC]\03 - J7.wav
Pre-gap length 0:00:03.65
Peak level 100.0 %
Extraction speed 3.1 X
Track quality 100.0 %
Test CRC BF3BE4A0
Copy CRC BF3BE4A0
Accurately ripped (confidence 1) [0328405F] (AR v1)
Copy OK
Track 4
Filename C:\EAC Rips\Circulasione Totale Orchestra - Accent (1988) [FLAC]\04 - Duo.wav
Pre-gap length 0:00:04.00
Peak level 57.5 %
Extraction speed 3.1 X
Track quality 100.0 %
Test CRC 4BBFC567
Copy CRC 4BBFC567
Accurately ripped (confidence 1) [0194449F] (AR v1)
Copy OK
Track 5
Filename C:\EAC Rips\Circulasione Totale Orchestra - Accent (1988) [FLAC]\05 - BKB.wav
Pre-gap length 0:00:02.10
Peak level 83.0 %
Extraction speed 3.6 X
Track quality 100.0 %
Test CRC 549D2D26
Copy CRC 549D2D26
Accurately ripped (confidence 1) [D77AD773] (AR v1)
Copy OK
Track 6
Filename C:\EAC Rips\Circulasione Totale Orchestra - Accent (1988) [FLAC]\06 - Cherry's Cherry.wav
Pre-gap length 0:00:03.13
Peak level 87.0 %
Extraction speed 4.0 X
Track quality 100.0 %
Test CRC D1F1238B
Copy CRC D1F1238B
Accurately ripped (confidence 1) [CAF93125] (AR v1)
Copy OK
Track 7
Filename C:\EAC Rips\Circulasione Totale Orchestra - Accent (1988) [FLAC]\07 - Trio.wav
Pre-gap length 0:00:03.50
Peak level 92.1 %
Extraction speed 2.4 X
Track quality 99.9 %
Test CRC D9BAF598
Copy CRC D9BAF598
Accurately ripped (confidence 1) [D96462CC] (AR v1)
Copy OK
Track 8
Filename C:\EAC Rips\Circulasione Totale Orchestra - Accent (1988) [FLAC]\08 - Poem For Albert.wav
Pre-gap length 0:00:03.15
Peak level 58.6 %
Extraction speed 3.9 X
Track quality 99.9 %
Test CRC 79812193
Copy CRC 79812193
Accurately ripped (confidence 1) [3B23F698] (AR v1)
Copy OK
Track 9
Filename C:\EAC Rips\Circulasione Totale Orchestra - Accent (1988) [FLAC]\09 - O.C. On TV.wav
Pre-gap length 0:00:03.26
Peak level 100.0 %
Extraction speed 4.7 X
Track quality 100.0 %
Test CRC B535BD96
Copy CRC B535BD96
Accurately ripped (confidence 1) [410DEEE0] (AR v1)
Copy OK
Track 10
Filename C:\EAC Rips\Circulasione Totale Orchestra - Accent (1988) [FLAC]\10 - Quartet.wav
Pre-gap length 0:00:03.48
Peak level 73.5 %
Extraction speed 3.9 X
Track quality 100.0 %
Test CRC D72E0122
Copy CRC D72E0122
Accurately ripped (confidence 1) [911241F8] (AR v1)
Copy OK
All tracks accurately ripped
No errors occurred
End of status report
==== Log checksum F28CF51B5A02E7DC1EA1FDD7C68650200A7CC0BA1CE5E4AD88B207DF959FC1FA ====
 
Содержание индексной карты (.CUE)
REM GENRE Jazz
REM DATE 1988
REM DISCID 7D0B6D0A
REM COMMENT "ExactAudioCopy v1.0b3"
CATALOG 0000000000000
PERFORMER "Circulasione Totale Orchestra"
TITLE "Accent"
FILE "01 - New Keys.wav" WAVE
TRACK 01 AUDIO
TITLE "New Keys"
PERFORMER "Circulasione Totale Orchestra"
INDEX 01 00:00:00
TRACK 02 AUDIO
TITLE "Happy House"
PERFORMER "Circulasione Totale Orchestra"
INDEX 00 03:56:24
FILE "02 - Happy House.wav" WAVE
INDEX 01 00:00:00
TRACK 03 AUDIO
TITLE "J7"
PERFORMER "Circulasione Totale Orchestra"
INDEX 00 03:05:10
FILE "03 - J7.wav" WAVE
INDEX 01 00:00:00
TRACK 04 AUDIO
TITLE "Duo"
PERFORMER "Circulasione Totale Orchestra"
INDEX 00 06:04:00
FILE "04 - Duo.wav" WAVE
INDEX 01 00:00:00
TRACK 05 AUDIO
TITLE "BKB"
PERFORMER "Circulasione Totale Orchestra"
INDEX 00 03:54:52
FILE "05 - BKB.wav" WAVE
INDEX 01 00:00:00
TRACK 06 AUDIO
TITLE "Cherry's Cherry"
PERFORMER "Circulasione Totale Orchestra"
INDEX 00 05:29:00
FILE "06 - Cherry's Cherry.wav" WAVE
INDEX 01 00:00:00
TRACK 07 AUDIO
TITLE "Trio"
PERFORMER "Circulasione Totale Orchestra"
INDEX 00 06:26:42
FILE "07 - Trio.wav" WAVE
INDEX 01 00:00:00
TRACK 08 AUDIO
TITLE "Poem For Albert"
PERFORMER "Circulasione Totale Orchestra"
INDEX 00 02:21:40
FILE "08 - Poem For Albert.wav" WAVE
INDEX 01 00:00:00
TRACK 09 AUDIO
TITLE "O.C. On TV"
PERFORMER "Circulasione Totale Orchestra"
INDEX 00 09:17:52
FILE "09 - O.C. On TV.wav" WAVE
INDEX 01 00:00:00
TRACK 10 AUDIO
TITLE "Quartet"
PERFORMER "Circulasione Totale Orchestra"
INDEX 00 05:55:27
FILE "10 - Quartet.wav" WAVE
INDEX 01 00:00:00
 
Лог проверки качества
d:\>d:\aucdtect -d/-m0 d:\zzz\*.wav
auCDtect: CD records authenticity detector, version 0.8.2
Copyright (c) 2004 Oleg Berngardt. All rights reserved.
Copyright (c) 2004 Alexander Djourik. All rights reserved.
------------------------------------------------------------
Processing file: [01. New Keys.wav]
------------------------------------------------------------
This track looks like CDDA with probability 100%
------------------------------------------------------------
Processing file: [02. Happy House.wav]
------------------------------------------------------------
This track looks like CDDA with probability 100%
------------------------------------------------------------
Processing file: [03. J7.wav]
------------------------------------------------------------
This track looks like CDDA with probability 100%
------------------------------------------------------------
Processing file: [04. Duo.wav]
------------------------------------------------------------
This track looks like CDDA with probability 100%
------------------------------------------------------------
Processing file: [05. BKB.wav]
------------------------------------------------------------
This track looks like CDDA with probability 100%
------------------------------------------------------------
Processing file: [06. Cherry's Cherry.wav]
------------------------------------------------------------
This track looks like CDDA with probability 100%
------------------------------------------------------------
Processing file: [07. Trio.wav]
------------------------------------------------------------
This track looks like CDDA with probability 100%
------------------------------------------------------------
Processing file: [08. Poem For Albert.wav]
------------------------------------------------------------
This track looks like CDDA with probability 100%
------------------------------------------------------------
Processing file: [09. O.C. On TV.wav]
------------------------------------------------------------
This track looks like CDDA with probability 100%
------------------------------------------------------------
Processing file: [10. Quartet.wav]
------------------------------------------------------------
This track looks like CDDA with probability 100%
------------------------------------------------------------
Final Conclusion:
------------------------------------------------------------
These tracks looks like CDDA with probability 100%
Доп. информация:
 
Artist Info by Frode Gjerstad
The Circulasione Totale Orchestra started in 1984 and the idea was to play with local musicians so I could try out compositions and also be a place for younger musicians to meet and to try to improvise. At that time I was playing with Johnny Mbizo Dyani and John Stevens in the group”DETAIL” and I felt it was important to bring on some of the things I learned from playing with them, to younger musicians.
The name of the band indicates that people will come and go and it was created ot of a night with some red wine and some quasi Italian language-ideas. A bit stupid, but at the same time a name which most people could understand the meaning of.
Over the years, many musicians have passed through – I think we have had 11 bassplayers….. We had two bassists most of the time and sometimes also 2 drummers banging along!. The band would be around 10 people and and in 1989 we played at the Molde Jazz festival with 13 people: 3 bassists, 2 drummers, percussion, guitar, keyboards, three horns, a DJ and a rapper. We used some of my songs and freely improvised of the rest. So the DJ and rapper who did a fantastic free-style rapping. People went crazy, dancing on the tables etc. This version of the band was called CTO “Dancemble”. Unfortunately, I thought it was going to be a disaster, because the rehearsals were horrible, that I said no to the state radio to record the concert…..It would have been a very early example of mixing free music and rapping.
 
Состав
Alto Sax – Bjørn Ole Solberg (tracks: 1 to 3, 5, 6, 8 to 10)
Bass – Kjell Arne Jensen (tracks: 1 to 3, 5, 6, 9), Øystein Eldøy (tracks: 1 to 3, 5, 6, 8, 9)
Drums – Audun Kleive (tracks: 1 to 3, 5 to 9), John Stevens (2)
Guitar – Morten Mølster (tracks: 1 to 3, 5, 6, 8, 9)
Percussion – Hans Chr. Hansen (tracks: 1 to 3, 5 to 7, 9)
Piano, Accordion – Eivin One Pedersen (tracks: 1 to 6, 8, 9)
Tenor Sax – Frode Gjerstad (tracks: 1 to 3, 5, 6, 8 to 10)
Trumpet – Didrik Ingvaldsen (tracks: 1 to 3, 5, 6, 8 to 10)
По всем вопросам пишите личное сообщение пользователю M0p94ok.
08:11
144
Нет комментариев. Ваш будет первым!