Вы используете незарегистрированную версию компонента "Вкладки"!

Поиск

(Avant-Garde Jazz, Free Improvisation) Alice Coltrane - Huntington Ashram Monastery & World Galaxy {1969, 1972} - 2011, FLAC (tracks+.cue), lossless

(Avant-Garde Jazz, Free Improvisation) Alice Coltrane - Huntington Ashram Monastery & World Galaxy {1969, 1972} - 2011, FLAC (tracks+.cue), lossless
Треклист:
•Alice Coltrane - Huntington Ashram Monastery & World Galaxy {1969, 1972}•
Жанр: Avant-Garde Jazz, Free Improvisation
Страна-производитель диска: EU
Год издания: 2011
Издатель (лейбл): Universal Music / Impulse!
Номер по каталогу: 06025 2780946
Аудиокодек: FLAC (*.flac)
Тип рипа: tracks+.cue
Битрейт аудио: lossless
Продолжительность: 01:16:43
Источник (релизер): ruskaval
Наличие сканов в содержимом раздачи: да
Треклист:
01. Huntington Ashram Monastery [05:33]
02. Turiya [04:19]
03. Paramahansa Lake [04:33]
04. Via Sivanandagar [06:06]
05. IHS [08:47]
06. Jaya Jaya Rama [06:29]
07. My Favorite Things [06:22]
08. Galaxy Around Olodumare [04:15]
09. Galaxy In Turiya [09:54]
10. Galaxy In Satchidananda [10:18]
11. A Love Supreme [10:02]
 
Лог создания рипа
Exact Audio Copy V1.0 beta 3 from 29. August 2011
EAC extraction logfile from 9. March 2013, 20:03
Alice Coltrane / Huntington Ashram Monastery & World Galaxy
Used drive : ATAPI iHAS124 B Adapter: 4 ID: 0
Read mode : Secure
Utilize accurate stream : Yes
Defeat audio cache : Yes
Make use of C2 pointers : No
Read offset correction : 6
Overread into Lead-In and Lead-Out : No
Fill up missing offset samples with silence : Yes
Delete leading and trailing silent blocks : No
Null samples used in CRC calculations : Yes
Used interface : Native Win32 interface for Win NT & 2000
Gap handling : Appended to previous track
Used output format : User Defined Encoder
Selected bitrate : 1024 kBit/s
Quality : High
Add ID3 tag : No
Command line compressor : C:\Program Files (x86)\FLAC\flac.exe
Additional command line options : -8 -V -T "ARTIST=%artist%" -T "TITLE=%title%" -T "ALBUM=%albumtitle%" -T "DATE=%year%" -T "TRACKNUMBER=%tracknr%" -T "TOTALTRACKS=%numtracks%" -T "GENRE=%genre%" -T "ALBUMARTIST=%albumartist%" -T "ALBUM ARTIST=%albumartist%" -T "COMMENT=EAC Secure Mode, Test & Copy, AccurateRip, FLAC -8" %source%
TOC of the extracted CD
Track | Start | Length | Start sector | End sector
---------------------------------------------------------
1 | 0:00.00 | 5:33.68 | 0 | 25042
2 | 5:33.68 | 4:19.52 | 25043 | 44519
3 | 9:53.45 | 4:33.55 | 44520 | 65049
4 | 14:27.25 | 6:06.59 | 65050 | 92558
5 | 20:34.09 | 8:47.07 | 92559 | 132090
6 | 29:21.16 | 6:29.23 | 132091 | 161288
7 | 35:50.39 | 6:22.09 | 161289 | 189947
8 | 42:12.48 | 4:15.40 | 189948 | 209112
9 | 46:28.13 | 9:54.37 | 209113 | 253699
10 | 56:22.50 | 10:18.10 | 253700 | 300059
11 | 66:40.60 | 10:02.28 | 300060 | 345237
Track 1
Filename C:\EAC\Alice Coltrane - Huntington Ashram Monastery & World Galaxy (1969, 1972) {2011 Impulse! 2-on-1 Remaster}\01 - Huntington Ashram Monastery.wav
Pre-gap length 0:00:02.00
Peak level 93.2 %
Extraction speed 4.1 X
Track quality 100.0 %
Test CRC 1500709D
Copy CRC 1500709D
Accurately ripped (confidence 1) [D19CB77E] (AR v1)
Copy OK
Track 2
Filename C:\EAC\Alice Coltrane - Huntington Ashram Monastery & World Galaxy (1969, 1972) {2011 Impulse! 2-on-1 Remaster}\02 - Turiya.wav
Pre-gap length 0:00:02.55
Peak level 98.8 %
Extraction speed 4.4 X
Track quality 100.0 %
Test CRC 4D6922F3
Copy CRC 4D6922F3
Accurately ripped (confidence 1) [CB0E44A9] (AR v1)
Copy OK
Track 3
Filename C:\EAC\Alice Coltrane - Huntington Ashram Monastery & World Galaxy (1969, 1972) {2011 Impulse! 2-on-1 Remaster}\03 - Paramahansa Lake.wav
Pre-gap length 0:00:02.05
Peak level 98.8 %
Extraction speed 4.8 X
Track quality 100.0 %
Test CRC 378C3D40
Copy CRC 378C3D40
Accurately ripped (confidence 1) [F26B3476] (AR v1)
Copy OK
Track 4
Filename C:\EAC\Alice Coltrane - Huntington Ashram Monastery & World Galaxy (1969, 1972) {2011 Impulse! 2-on-1 Remaster}\04 - Via Sivanandagar.wav
Pre-gap length 0:00:01.66
Peak level 98.8 %
Extraction speed 5.3 X
Track quality 100.0 %
Test CRC 9CD1C782
Copy CRC 9CD1C782
Accurately ripped (confidence 1) [6CA52CAE] (AR v1)
Copy OK
Track 5
Filename C:\EAC\Alice Coltrane - Huntington Ashram Monastery & World Galaxy (1969, 1972) {2011 Impulse! 2-on-1 Remaster}\05 - IHS.wav
Pre-gap length 0:00:02.06
Peak level 80.5 %
Extraction speed 6.0 X
Track quality 100.0 %
Test CRC 38A33801
Copy CRC 38A33801
Accurately ripped (confidence 1) [961AAEFE] (AR v1)
Copy OK
Track 6
Filename C:\EAC\Alice Coltrane - Huntington Ashram Monastery & World Galaxy (1969, 1972) {2011 Impulse! 2-on-1 Remaster}\06 - Jaya Jaya Rama.wav
Pre-gap length 0:00:02.00
Peak level 92.8 %
Extraction speed 6.3 X
Track quality 100.0 %
Test CRC 9A179733
Copy CRC 9A179733
Accurately ripped (confidence 1) [815E91DB] (AR v1)
Copy OK
Track 7
Filename C:\EAC\Alice Coltrane - Huntington Ashram Monastery & World Galaxy (1969, 1972) {2011 Impulse! 2-on-1 Remaster}\07 - My Favorite Things.wav
Pre-gap length 0:00:04.00
Peak level 98.8 %
Extraction speed 5.7 X
Track quality 99.9 %
Test CRC 27141AD4
Copy CRC 27141AD4
Accurately ripped (confidence 1) [AB2BF990] (AR v1)
Copy OK
Track 8
Filename C:\EAC\Alice Coltrane - Huntington Ashram Monastery & World Galaxy (1969, 1972) {2011 Impulse! 2-on-1 Remaster}\08 - Galaxy Around Olodumare.wav
Peak level 98.8 %
Extraction speed 6.7 X
Track quality 100.0 %
Test CRC 8CA6142E
Copy CRC 8CA6142E
Accurately ripped (confidence 1) [070352E1] (AR v1)
Copy OK
Track 9
Filename C:\EAC\Alice Coltrane - Huntington Ashram Monastery & World Galaxy (1969, 1972) {2011 Impulse! 2-on-1 Remaster}\09 - Galaxy In Turiya.wav
Peak level 98.8 %
Extraction speed 7.6 X
Track quality 100.0 %
Test CRC DD7594E4
Copy CRC DD7594E4
Accurately ripped (confidence 1) [A24385AF] (AR v1)
Copy OK
Track 10
Filename C:\EAC\Alice Coltrane - Huntington Ashram Monastery & World Galaxy (1969, 1972) {2011 Impulse! 2-on-1 Remaster}\10 - Galaxy In Satchidananda.wav
Peak level 95.9 %
Extraction speed 7.4 X
Track quality 99.9 %
Test CRC 47349384
Copy CRC 47349384
Accurately ripped (confidence 1) [C42059E8] (AR v1)
Copy OK
Track 11
Filename C:\EAC\Alice Coltrane - Huntington Ashram Monastery & World Galaxy (1969, 1972) {2011 Impulse! 2-on-1 Remaster}\11 - A Love Supreme.wav
Peak level 98.8 %
Extraction speed 8.7 X
Track quality 100.0 %
Test CRC 806D27D3
Copy CRC 806D27D3
Accurately ripped (confidence 1) [516FE237] (AR v1)
Copy OK
All tracks accurately ripped
No errors occurred
End of status report
==== Log checksum C83B77308C8B01EDBA7F698AC0BAED9CC9C2ED0035D5A3E8F2B53BCC11FE2754 ====
 
Содержание индексной карты (.CUE)
REM GENRE Jazz
REM DATE 2011
REM DISCID 9611FB0B
REM COMMENT "ExactAudioCopy v1.0b3"
PERFORMER "Alice Coltrane"
TITLE "Huntington Ashram Monastery & World Galaxy"
FILE "01 - Huntington Ashram Monastery.wav" WAVE
TRACK 01 AUDIO
TITLE "Huntington Ashram Monastery"
PERFORMER "Alice Coltrane"
INDEX 01 00:00:00
TRACK 02 AUDIO
TITLE "Turiya"
PERFORMER "Alice Coltrane"
INDEX 00 05:31:13
FILE "02 - Turiya.wav" WAVE
INDEX 01 00:00:00
TRACK 03 AUDIO
TITLE "Paramahansa Lake"
PERFORMER "Alice Coltrane"
INDEX 00 04:17:47
FILE "03 - Paramahansa Lake.wav" WAVE
INDEX 01 00:00:00
TRACK 04 AUDIO
TITLE "Via Sivanandagar"
PERFORMER "Alice Coltrane"
INDEX 00 04:31:64
FILE "04 - Via Sivanandagar.wav" WAVE
INDEX 01 00:00:00
TRACK 05 AUDIO
TITLE "IHS"
PERFORMER "Alice Coltrane"
INDEX 00 06:04:53
FILE "05 - IHS.wav" WAVE
INDEX 01 00:00:00
TRACK 06 AUDIO
TITLE "Jaya Jaya Rama"
PERFORMER "Alice Coltrane"
INDEX 00 08:45:07
FILE "06 - Jaya Jaya Rama.wav" WAVE
INDEX 01 00:00:00
TRACK 07 AUDIO
TITLE "My Favorite Things"
PERFORMER "Alice Coltrane"
INDEX 00 06:25:23
FILE "07 - My Favorite Things.wav" WAVE
INDEX 01 00:00:00
FILE "08 - Galaxy Around Olodumare.wav" WAVE
TRACK 08 AUDIO
TITLE "Galaxy Around Olodumare"
PERFORMER "Alice Coltrane"
INDEX 01 00:00:00
FILE "09 - Galaxy In Turiya.wav" WAVE
TRACK 09 AUDIO
TITLE "Galaxy In Turiya"
PERFORMER "Alice Coltrane"
INDEX 01 00:00:00
FILE "10 - Galaxy In Satchidananda.wav" WAVE
TRACK 10 AUDIO
TITLE "Galaxy In Satchidananda"
PERFORMER "Alice Coltrane"
INDEX 01 00:00:00
FILE "11 - A Love Supreme.wav" WAVE
TRACK 11 AUDIO
TITLE "A Love Supreme"
PERFORMER "Alice Coltrane"
INDEX 01 00:00:00
 
Состав
Personnel:
Alice Coltrane - Harp, Organ, Piano, Tamboura
Frank Lowe - Saxophone
Ron Carter - Bass
Ben Riley - Drums, Percussion
Reggie Workman - Bass
Rashied Ali - Drums, Percussion
Any questions -> support@pro-jazz.com. По всем вопросам пишите -> support@pro-jazz.com
10:01
277
Нет комментариев. Ваш будет первым!