Вы используете незарегистрированную версию компонента "Вкладки"!

Поиск

(Avant-Garde Jazz, Free Improvisation) Agusti Fernandez, Barry Guy, Ramon Lopez - A Moment's Liberty - 2013, FLAC (image+.cue), lossless

(Avant-Garde Jazz, Free Improvisation) Agusti Fernandez, Barry Guy, Ramon Lopez - A Moment's Liberty - 2013, FLAC (image+.cue), lossless
Треклист:
Agusti Fernandez, Barry Guy, Ramon Lopez / A Moment's Liberty
Жанр: Avant-Garde Jazz, Free Improvisation
Страна-производитель диска: Switzerland
Год издания: 2013
Издатель (лейбл): Maya Recordings
Номер по каталогу: MCD 1302
Страна: Various
Аудиокодек: FLAC (*.flac)
Тип рипа: image+.cue
Битрейт аудио: lossless
Продолжительность: 01:13:36
Источник (релизер): Собственный рип
Наличие сканов в содержимом раздачи: нет
Треклист:
1. A Moment's Liberty
2. Annalisa
3. El Tesoro
4. Uma
5. Breath
6. Bielefeld Breakout
7. Orangina
8. Algarabia
9. The Ancients
10. Joan i Joana
 
Лог создания рипа
Exact Audio Copy V1.0 beta 3 from 29. August 2011
Отчёт EAC об извлечении, выполненном 22. октября 2013, 23:51
Agustí Fernández, Barry Guy, Ramón López / A Moment's Liberty
Дисковод: Optiarc DVD RW AD-7200A Adapter: 0 ID: 0
Режим чтения : Достоверность
Использование точного потока : Да
Отключение кэша аудио : Да
Использование указателей C2 : Нет
Коррекция смещения при чтении : 48
Способность читать области Lead-in и Lead-out : Нет
Заполнение пропущенных сэмплов тишиной : Да
Удаление блоков с тишиной в начале и конце : Нет
При вычислениях CRC использовались нулевые сэмплы : Да
Интерфейс : Встроенный Win32-интерфейс для Win NT/2000
Выходной формат : Пользовательский кодировщик
Выбранный битрейт : 128 kBit/s
Качество : Высокий
Добавление ID3-тега : Нет
Утилита сжатия : D:\Distrib\flac-1.2.1b.exe
Дополнительные параметры : -V -8 -T "Date=%year%" -T "Genre=%genre%" %source%
TOC извлечённого CD
Трек | Старт | Длительность | Начальный сектор | Конечный сектор
---------------------------------------------------------------------
1 | 0:00.00 | 18:04.73 | 0 | 81372
2 | 18:04.73 | 6:47.06 | 81373 | 111903
3 | 24:52.04 | 7:16.36 | 111904 | 144639
4 | 32:08.40 | 5:11.45 | 144640 | 168009
5 | 37:20.10 | 8:02.36 | 168010 | 204195
6 | 45:22.46 | 5:51.18 | 204196 | 230538
7 | 51:13.64 | 4:58.39 | 230539 | 252927
8 | 56:12.28 | 3:48.30 | 252928 | 270057
9 | 60:00.58 | 7:17.66 | 270058 | 302898
10 | 67:18.49 | 6:16.15 | 302899 | 331113
Характеристики диапазона извлечения и сообщения об ошибках
Выбранный диапазон
Имя файла D:\Music\[B]\Barry Guy\2013 - A Moment's Liberty\Agusti Fernandez, Barry Guy, Ramon Lopez - A Moment's Liberty.wav
Пиковый уровень 92.3 %
Скорость извлечения 4.3 X
Качество диапазона 100.0 %
CRC теста 559DE9BB
CRC копии 559DE9BB
Копирование... OK
Ошибок не произошло
AccurateRip: сводка
Трек 1 отсутствует в базе данных
Трек 2 отсутствует в базе данных
Трек 3 отсутствует в базе данных
Трек 4 отсутствует в базе данных
Трек 5 отсутствует в базе данных
Трек 6 отсутствует в базе данных
Трек 7 отсутствует в базе данных
Трек 8 отсутствует в базе данных
Трек 9 отсутствует в базе данных
Трек 10 отсутствует в базе данных
Ни одного трека нет в базе AccurateRip
Конец отчёта
==== Контрольная сумма отчёта 784A55210E8F7D01F712E86EB55BC572124C97F257A9B522DF3D4EE0512E432F ====
 
Содержание индексной карты (.CUE)
REM GENRE Jazz
REM DATE 2013
REM DISCID 7C113E0A
REM COMMENT "ExactAudioCopy v1.0b3"
PERFORMER "Agusti Fernandez, Barry Guy, Ramon Lopez"
TITLE "A Moment's Liberty"
FILE "Agusti Fernandez, Barry Guy, Ramon Lopez - A Moment's Liberty.flac" WAVE
TRACK 01 AUDIO
TITLE "A Moment's Liberty"
PERFORMER "Agusti Fernandez, Barry Guy, Ramon Lopez"
FLAGS DCP
INDEX 01 00:00:00
TRACK 02 AUDIO
TITLE "Annalisa"
PERFORMER "Agusti Fernandez, Barry Guy, Ramon Lopez"
FLAGS DCP
INDEX 00 18:02:73
INDEX 01 18:04:73
TRACK 03 AUDIO
TITLE "El Tesoro"
PERFORMER "Agusti Fernandez, Barry Guy, Ramon Lopez"
FLAGS DCP
INDEX 00 24:50:04
INDEX 01 24:52:04
TRACK 04 AUDIO
TITLE "Uma"
PERFORMER "Agusti Fernandez, Barry Guy, Ramon Lopez"
FLAGS DCP
INDEX 00 32:06:40
INDEX 01 32:08:40
TRACK 05 AUDIO
TITLE "Breath"
PERFORMER "Agusti Fernandez, Barry Guy, Ramon Lopez"
FLAGS DCP
INDEX 00 37:18:10
INDEX 01 37:20:10
TRACK 06 AUDIO
TITLE "Bielefeld Breakout"
PERFORMER "Agusti Fernandez, Barry Guy, Ramon Lopez"
FLAGS DCP
INDEX 00 45:20:46
INDEX 01 45:22:46
TRACK 07 AUDIO
TITLE "Orangina"
PERFORMER "Agusti Fernandez, Barry Guy, Ramon Lopez"
FLAGS DCP
INDEX 00 51:11:64
INDEX 01 51:13:64
TRACK 08 AUDIO
TITLE "Algarabia"
PERFORMER "Agusti Fernandez, Barry Guy, Ramon Lopez"
FLAGS DCP
INDEX 00 56:10:28
INDEX 01 56:12:28
TRACK 09 AUDIO
TITLE "The Ancients"
PERFORMER "Agusti Fernandez, Barry Guy, Ramon Lopez"
FLAGS DCP
INDEX 00 59:58:58
INDEX 01 60:00:58
TRACK 10 AUDIO
TITLE "Joan i Joana"
PERFORMER "Agusti Fernandez, Barry Guy, Ramon Lopez"
FLAGS DCP
INDEX 00 67:16:49
INDEX 01 67:18:49
 
Состав
Agusti Fernandez — piano
Barry Guy — bass
Ramon Lopez — drums, percussion
Any questions -> support@pro-jazz.com. По всем вопросам пишите -> support@pro-jazz.com
19:27
198
Нет комментариев. Ваш будет первым!