Вы используете незарегистрированную версию компонента "Вкладки"!

Поиск

(Avant-Garde Jazz, Free Improvisation) Actis Dato Quartetto - 2010 - 2010, FLAC (tracks+.cue), lossless

(Avant-Garde Jazz, Free Improvisation) Actis Dato Quartetto - 2010 - 2010, FLAC (tracks+.cue), lossless
Треклист:
•Actis Dato Quartetto - 2010•
Жанр: Avant-Garde Jazz, Free Improvisation
Страна-производитель диска: Italy
Год издания: 2010
Издатель (лейбл): actisdato
Аудиокодек: FLAC (*.flac)
Тип рипа: tracks+.cue
Битрейт аудио: lossless
Продолжительность: 01:13:44
Источник (релизер): Рип с диска.
Наличие сканов в содержимом раздачи: да
Треклист:
01. Belle Epoque [05:07]
02. Ionio [07:14]
03. Azores [05:35]
04. Sahel [09:06]
05. Mad Chickens [06:22]
06. Marina di Vinosa [07:36]
07. Giza Pyramids [07:15]
08. Masai [08:32]
09. Istanbul Rap [05:22]
10. Afrocats [07:06]
11. Pretty Pigs [04:24]

Personnel:
Carlo Actis Dato - bars, Bcl
Beppe Di Filippo - ss, as
Matteo Ravizza - b
Daniele Bertone - dr, djembe
 
Лог создания рипа
Exact Audio Copy V1.0 beta 3 from 29. August 2011
Отчёт EAC об извлечении, выполненном 5. сентября 2012, 8:25
Actis Dato Quartetto / 2010
Дисковод: Optiarc DVD RW AD-5200A Adapter: 0 ID: 0
Режим чтения : Достоверность
Использование точного потока : Да
Отключение кэша аудио : Да
Использование указателей C2 : Нет
Коррекция смещения при чтении : 48
Способность читать области Lead-in и Lead-out : Нет
Заполнение пропущенных сэмплов тишиной : Да
Удаление блоков с тишиной в начале и конце : Нет
При вычислениях CRC использовались нулевые сэмплы : Да
Интерфейс : Встроенный Win32-интерфейс для Win NT/2000
Обработка зазоров : Добавлено к предыдущему треку
Выходной формат : Пользовательский кодировщик
Выбранный битрейт : 128 kBit/s
Качество : Высокий
Добавление ID3-тега : Нет
Утилита сжатия : C:\Program Files\Exact Audio Copy\Flac\flac.exe
Дополнительные параметры : -V -8 -T "Genre=%genre%" -T "Artist=%artist%" -T "Title=%title%" -T "Album=%albumtitle%" -T "Date=%year%" -T "Tracknumber=%tracknr%" -T "Comment=%comment%" %source%
TOC извлечённого CD
Трек | Старт | Длительность | Начальный сектор | Конечный сектор
---------------------------------------------------------------------
1 | 0:00.00 | 5:07.32 | 0 | 23056
2 | 5:07.32 | 7:14.17 | 23057 | 55623
3 | 12:21.49 | 5:35.74 | 55624 | 80822
4 | 17:57.48 | 9:06.72 | 80823 | 121844
5 | 27:04.45 | 6:22.61 | 121845 | 150555
6 | 33:27.31 | 7:36.23 | 150556 | 184778
7 | 41:03.54 | 7:15.35 | 184779 | 217438
8 | 48:19.14 | 8:32.41 | 217439 | 255879
9 | 56:51.55 | 5:22.49 | 255880 | 280078
10 | 62:14.29 | 7:06.02 | 280079 | 312030
11 | 69:20.31 | 4:24.18 | 312031 | 331848
Трек 1
Имя файла F:\2010.Actis Dato Qurtetto - 2010\01. Belle Epoque.wav
Длина предзазора 0:00:02.00
Пиковый уровень 100.0 %
Скорость извлечения 2.2 X
Качество трека 99.9 %
CRC теста E9B2C05C
CRC копии E9B2C05C
Трек не обнаружен в базе AccurateRip
Копирование... OK
Трек 2
Имя файла F:\2010.Actis Dato Qurtetto - 2010\02. Ionto.wav
Длина предзазора 0:00:01.32
Пиковый уровень 100.0 %
Скорость извлечения 2.7 X
Качество трека 99.9 %
CRC теста 23D9B1E2
CRC копии 23D9B1E2
Трек не обнаружен в базе AccurateRip
Копирование... OK
Трек 3
Имя файла F:\2010.Actis Dato Qurtetto - 2010\03. Azores.wav
Длина предзазора 0:00:01.57
Пиковый уровень 100.0 %
Скорость извлечения 2.9 X
Качество трека 99.9 %
CRC теста BAB2DA0C
CRC копии BAB2DA0C
Трек не обнаружен в базе AccurateRip
Копирование... OK
Трек 4
Имя файла F:\2010.Actis Dato Qurtetto - 2010\04. Sahel.wav
Длина предзазора 0:00:02.00
Пиковый уровень 100.0 %
Скорость извлечения 3.6 X
Качество трека 100.0 %
CRC теста BD1F00FF
CRC копии BD1F00FF
Трек не обнаружен в базе AccurateRip
Копирование... OK
Трек 5
Имя файла F:\2010.Actis Dato Qurtetto - 2010\05. Mad Chickens.wav
Длина предзазора 0:00:02.00
Пиковый уровень 100.0 %
Скорость извлечения 3.3 X
Качество трека 99.9 %
CRC теста 13440B83
CRC копии 13440B83
Трек не обнаружен в базе AccurateRip
Копирование... OK
Трек 6
Имя файла F:\2010.Actis Dato Qurtetto - 2010\06. Marina di Vinosa.wav
Длина предзазора 0:00:02.00
Пиковый уровень 100.0 %
Скорость извлечения 3.7 X
Качество трека 100.0 %
CRC теста B7736C8E
CRC копии B7736C8E
Трек не обнаружен в базе AccurateRip
Копирование... OK
Трек 7
Имя файла F:\2010.Actis Dato Qurtetto - 2010\07. Giza Pyramids.wav
Длина предзазора 0:00:01.19
Пиковый уровень 100.0 %
Скорость извлечения 3.7 X
Качество трека 100.0 %
CRC теста E8ADFEF0
CRC копии E8ADFEF0
Трек не обнаружен в базе AccurateRip
Копирование... OK
Трек 8
Имя файла F:\2010.Actis Dato Qurtetto - 2010\08. Masai.wav
Длина предзазора 0:00:00.56
Пиковый уровень 100.0 %
Скорость извлечения 3.7 X
Качество трека 100.0 %
CRC теста F53BD292
CRC копии F53BD292
Трек не обнаружен в базе AccurateRip
Копирование... OK
Трек 9
Имя файла F:\2010.Actis Dato Qurtetto - 2010\09. Istanbul Rap.wav
Длина предзазора 0:00:02.00
Пиковый уровень 100.0 %
Скорость извлечения 3.6 X
Качество трека 100.0 %
CRC теста 1D8ECFB1
CRC копии 1D8ECFB1
Трек не обнаружен в базе AccurateRip
Копирование... OK
Трек 10
Имя файла F:\2010.Actis Dato Qurtetto - 2010\10. Afrocats.wav
Длина предзазора 0:00:01.24
Пиковый уровень 100.0 %
Скорость извлечения 3.7 X
Качество трека 100.0 %
CRC теста F53F521E
CRC копии F53F521E
Трек не обнаружен в базе AccurateRip
Копирование... OK
Трек 11
Имя файла F:\2010.Actis Dato Qurtetto - 2010\11. Pretty Pigs.wav
Длина предзазора 0:00:01.60
Пиковый уровень 100.0 %
Скорость извлечения 3.5 X
Качество трека 100.0 %
CRC теста 161324DC
CRC копии 161324DC
Трек не обнаружен в базе AccurateRip
Копирование... OK
Ни одного трека нет в базе AccurateRip
Ошибок не произошло
Конец отчёта
==== Контрольная сумма отчёта 2FE86C97AEEA0E56A470AB800F1D73E7B6D88EE404D10E51B8A09CF97A08D87F ====
 
Содержание индексной карты (.CUE)
REM GENRE Jazz
REM DATE 2010
REM DISCID 8F11480B
REM COMMENT "ExactAudioCopy v1.0b3"
PERFORMER "Actis Dato Quartetto"
TITLE "2010"
FILE "01. Belle Epoque.wav" WAVE
TRACK 01 AUDIO
TITLE "Belle Epoque"
PERFORMER "Actis Dato Quartetto"
INDEX 01 00:00:00
TRACK 02 AUDIO
TITLE "Ionto"
PERFORMER "Actis Dato Quartetto"
INDEX 00 05:06:00
FILE "02. Ionto.wav" WAVE
INDEX 01 00:00:00
TRACK 03 AUDIO
TITLE "Azores"
PERFORMER "Actis Dato Quartetto"
INDEX 00 07:12:35
FILE "03. Azores.wav" WAVE
INDEX 01 00:00:00
TRACK 04 AUDIO
TITLE "Sahel"
PERFORMER "Actis Dato Quartetto"
INDEX 00 05:33:74
FILE "04. Sahel.wav" WAVE
INDEX 01 00:00:00
TRACK 05 AUDIO
TITLE "Mad Chickens"
PERFORMER "Actis Dato Quartetto"
INDEX 00 09:04:72
FILE "05. Mad Chickens.wav" WAVE
INDEX 01 00:00:00
TRACK 06 AUDIO
TITLE "Marina di Vinosa"
PERFORMER "Actis Dato Quartetto"
INDEX 00 06:20:61
FILE "06. Marina di Vinosa.wav" WAVE
INDEX 01 00:00:00
TRACK 07 AUDIO
TITLE "Giza Pyramids"
PERFORMER "Actis Dato Quartetto"
INDEX 00 07:35:04
FILE "07. Giza Pyramids.wav" WAVE
INDEX 01 00:00:00
TRACK 08 AUDIO
TITLE "Masai"
PERFORMER "Actis Dato Quartetto"
INDEX 00 07:14:54
FILE "08. Masai.wav" WAVE
INDEX 01 00:00:00
TRACK 09 AUDIO
TITLE "Istanbul Rap"
PERFORMER "Actis Dato Quartetto"
INDEX 00 08:30:41
FILE "09. Istanbul Rap.wav" WAVE
INDEX 01 00:00:00
TRACK 10 AUDIO
TITLE "Afrocats"
PERFORMER "Actis Dato Quartetto"
INDEX 00 05:21:25
FILE "10. Afrocats.wav" WAVE
INDEX 01 00:00:00
TRACK 11 AUDIO
TITLE "Pretty Pigs"
PERFORMER "Actis Dato Quartetto"
INDEX 00 07:04:17
FILE "11. Pretty Pigs.wav" WAVE
INDEX 01 00:00:00
Any questions -> support@pro-jazz.com. По всем вопросам пишите -> support@pro-jazz.com
03:35
147
Нет комментариев. Ваш будет первым!