Вы используете незарегистрированную версию компонента "Вкладки"!

Поиск

(Avant-Garde Jazz / Free Funk / Jazz Instrument) Ornette Coleman & Prime Time - Tone Dialing - 1995, WavPack (image+.cue) lossless

Треклист:
Ornette Coleman & Prime Time / Tone Dialing
Жанр: Avant-Garde Jazz / Free Funk / Jazz Instrument
Страна-производитель диска: USA
Год издания диска: 1995
Издатель (лейбл): Harmolodic / Verve
Номер по каталогу: 314 527483-2
Страна: n/a
Аудио кодек: WavPack (*.wv)
Тип рипа: image+.cue
Битрейт аудио: lossless
Продолжительность: 1:06:00
Источник (релизер): Найдено в сети. Released by RunawayTrane
Наличие сканов в содержимом раздачи: да HQ Scans
Треклист:
01. Street Blues [Coleman] (4:58)
02. Search for Life [Coleman] (7:32)
03. Guadalupe [Coleman] (4:10)
04. Bach Prelude [Bach] (5:40)
05. Sound Is Everywhere [Coleman] (3:34)
06. Miguel's Fortune [Coleman] (6:04)
07. La Capella [Coleman] (4:32)
08. O.A.C. [Coleman] (3:47)
09. If I Knew as Much About You (As You Know About Me) [Coleman] (2:36)
10. When Will I See You Again [Coleman] (2:46)
11. Kathelin Gray [Coleman, Metheny] (4:41)
12. Badal [Coleman] (4:42)
13. Tone Dialing [Coleman] (1:45)
14. Family Reunion [Coleman] (4:07)
15. Local Instinct [Coleman] (2:56)
16. Ying Yang [Coleman] (2:56)
 
Лог создания рипа
Exact Audio Copy V0.99 prebeta 5 from 4. May 2009
EAC extraction logfile from 10. February 2011, 15:53
Ornette Coleman / Tone Dialing
Used drive : Memorex 52MAXX 3252AJ1 Adapter: 1 ID: 0
Read mode : Secure
Utilize accurate stream : Yes
Defeat audio cache : Yes
Make use of C2 pointers : No
Read offset correction : 6
Overread into Lead-In and Lead-Out : No
Fill up missing offset samples with silence : Yes
Delete leading and trailing silent blocks : No
Null samples used in CRC calculations : Yes
Used interface : Native Win32 interface for Win NT & 2000
Used output format : User Defined Encoder
Selected bitrate : 768 kBit/s
Quality : High
Add ID3 tag : No
Command line compressor : C:\Program Files (x86)\Exact Audio Copy\wavpack.exe
Additional command line options : -w "Artist=%a" -w "Title=%t" -w "Album=%g" -w "Year=%y" -w "Track=%n" -w "Genre=%m" -h %s %d
TOC of the extracted CD
Track | Start | Length | Start sector | End sector
---------------------------------------------------------
1 | 0:00.45 | 5:01.65 | 45 | 22684
2 | 5:02.35 | 7:39.67 | 22685 | 57176
3 | 12:42.27 | 4:08.53 | 57177 | 75829
4 | 16:51.05 | 5:41.70 | 75830 | 101474
5 | 22:33.00 | 3:34.70 | 101475 | 117594
6 | 26:07.70 | 6:06.00 | 117595 | 145044
7 | 32:13.70 | 4:32.07 | 145045 | 165451
8 | 36:46.02 | 2:48.30 | 165452 | 178081
9 | 39:34.32 | 2:33.63 | 178082 | 189619
10 | 42:08.20 | 2:47.05 | 189620 | 202149
11 | 44:55.25 | 4:38.40 | 202150 | 223039
12 | 49:33.65 | 4:36.47 | 223040 | 243786
13 | 54:10.37 | 1:50.53 | 243787 | 252089
14 | 56:01.15 | 4:07.10 | 252090 | 270624
15 | 60:08.25 | 2:56.25 | 270625 | 283849
16 | 63:04.50 | 2:56.62 | 283850 | 297111
Range status and errors
Selected range
Filename C:\Users\M@ce\Music\Archives\Rips\Ornette Coleman - Tone Dialing.wav
Peak level 100.0 %
Range quality 99.9 %
Test CRC B7B4BED6
Copy CRC B7B4BED6
Copy OK
No errors occurred
AccurateRip summary
Track 1 accurately ripped (confidence 11) [FC60AAD7]
Track 2 accurately ripped (confidence 11) [4B91251D]
Track 3 accurately ripped (confidence 11) [0DD0CD8B]
Track 4 accurately ripped (confidence 11) [D6A63378]
Track 5 accurately ripped (confidence 10) [C84C4941]
Track 6 accurately ripped (confidence 11) [907C64DB]
Track 7 accurately ripped (confidence 11) [56C5B28E]
Track 8 accurately ripped (confidence 11) [858C557F]
Track 9 accurately ripped (confidence 11) [F7098AB7]
Track 10 accurately ripped (confidence 11) [E24F5141]
Track 11 accurately ripped (confidence 11) [D812D47D]
Track 12 accurately ripped (confidence 10) [888399C2]
Track 13 accurately ripped (confidence 11) [C3A8E9A1]
Track 14 accurately ripped (confidence 11) [603CD1FD]
Track 15 accurately ripped (confidence 11) [FFA0ED63]
Track 16 accurately ripped (confidence 10) [94198BE6]
All tracks accurately ripped
End of status report
 
Содержание индексной карты (.CUE)
REM GENRE Jazz
REM DATE 1995
REM DISCID E80F7910
REM COMMENT "ExactAudioCopy v0.99pb5"
PERFORMER "Ornette Coleman"
TITLE "Tone Dialing"
FILE "Ornette Coleman - Tone Dialing.wav" WAVE
TRACK 01 AUDIO
TITLE "Street Blues"
PERFORMER "Ornette Coleman"
INDEX 00 00:00:00
INDEX 01 00:00:45
TRACK 02 AUDIO
TITLE "Search For Life"
PERFORMER "Ornette Coleman"
INDEX 01 05:02:35
TRACK 03 AUDIO
TITLE "Guadalupe"
PERFORMER "Ornette Coleman"
INDEX 00 12:40:45
INDEX 01 12:42:27
TRACK 04 AUDIO
TITLE "Bach Prelude"
PERFORMER "Ornette Coleman"
INDEX 00 16:50:45
INDEX 01 16:51:05
TRACK 05 AUDIO
TITLE "Sound Is Everywhere"
PERFORMER "Ornette Coleman"
INDEX 00 22:30:67
INDEX 01 22:33:00
TRACK 06 AUDIO
TITLE "Miguel's Fortune"
PERFORMER "Ornette Coleman"
INDEX 00 26:06:45
INDEX 01 26:07:70
TRACK 07 AUDIO
TITLE "La Capella"
PERFORMER "Ornette Coleman"
INDEX 00 32:11:42
INDEX 01 32:13:70
TRACK 08 AUDIO
TITLE "OAC"
PERFORMER "Ornette Coleman"
INDEX 00 36:45:32
INDEX 01 36:46:02
TRACK 09 AUDIO
TITLE "If I Knew As Much About You (As You Know About Me)"
PERFORMER "Ornette Coleman"
INDEX 00 39:32:70
INDEX 01 39:34:32
TRACK 10 AUDIO
TITLE "When Will I See You Again"
PERFORMER "Ornette Coleman"
INDEX 01 42:08:20
TRACK 11 AUDIO
TITLE "Kathelin Gray"
PERFORMER "Ornette Coleman"
INDEX 00 44:54:00
INDEX 01 44:55:25
TRACK 12 AUDIO
TITLE "Badal"
PERFORMER "Ornette Coleman"
INDEX 00 49:32:45
INDEX 01 49:33:65
TRACK 13 AUDIO
TITLE "Tone Dialing"
PERFORMER "Ornette Coleman"
INDEX 01 54:10:37
TRACK 14 AUDIO
TITLE "Family Reunion"
PERFORMER "Ornette Coleman"
INDEX 00 56:00:45
INDEX 01 56:01:15
TRACK 15 AUDIO
TITLE "Local Instinct"
PERFORMER "Ornette Coleman"
INDEX 01 60:08:25
TRACK 16 AUDIO
TITLE "Ying Yang"
PERFORMER "Ornette Coleman"
INDEX 00 63:03:60
INDEX 01 63:04:50
 
Лог проверки качества
-----------------------
DON'T MODIFY THIS FILE
-----------------------
PERFORMER: auCDtect Task Manager, ver. 1.5.1RC4 build 1.5.1.5
Copyright (c) 2008-2010 y-soft. All rights reserved
http://y-soft.org
ANALYZER: auCDtect: CD records authenticity detector, version 0.8.2
Copyright (c) 2004 Oleg Berngardt. All rights reserved.
Copyright (c) 2004 Alexander Djourik. All rights reserved.
FILE: Ornette Coleman - Tone Dialing.wv
Size: 406854134 Hash: B14EC4D9B969A62D870602E2DDB3BEB2 Accuracy: -m0
Conclusion: CDDA 100%
Signature: 5B69D0BE6DD27CD1B99BA450D9C1AC39E540A17B
 
Состав
Ornette Coleman  Arranger, Saxophone (Alto), Violin, Trumpet
Badal Roy Tablas, Percussion
Al MacDowell Bass (Electric)
Dave Bryant Keyboards
Bradley Jones Bass (Acoustic)
Chris Rosenberg Guitar (Electric)
Ken Wessel Guitar (Electric)
Avenda Ali Vocals (track 2)
Moishe Naim Vocals (track 2)
Chris Walker Bass, Keyboards (track 2)
Gregg Mann Engineer, Mixing
Tom Lazurus Mastering
Denardo Coleman Producer, Drum Programming, Drums
По всем вопросам пишите личное сообщение пользователю M0p94ok.
08:47
126
Нет комментариев. Ваш будет первым!