Вы используете незарегистрированную версию компонента "Вкладки"!

Поиск

(Avant-Garde Jazz) Fredrik Ljungkvist & Yun Kan 10 (Mats Aleklint, Raymond Strid, Per-Ake Holmlander a.o.) - Ten [2CD] - 2013, FLAC (tracks+.cue), lossless

(Avant-Garde Jazz) Fredrik Ljungkvist & Yun Kan 10 (Mats Aleklint, Raymond Strid, Per-Ake Holmlander a.o.) - Ten [2CD] - 2013, FLAC (tracks+.cue), lossless
Треклист:
FREDRIK LJUNGKVIST
YUN KAN 10
TEN Жанр: Avant-Garde Jazz
Страна-производитель диска: Sweden
Год издания: 2013
Издатель (лейбл): Hoob Jazz
Номер по каталогу: HOOBCD035
Аудиокодек: FLAC (*.flac)
Тип рипа: tracks+.cue
Битрейт аудио: lossless
Продолжительность: 41:06 + 41:13
Источник (релизер): спасибо 6060842
Наличие сканов в содержимом раздачи: нет
Треклист:
CD1:
1. Lackritz
2. How To Break A Fever
3. Hold On To Your Hat!
4. Fighter
5. Kun Lun
CD2:
1. Dolphinian Motion
2. Tuulikki
3. No Panic, Just Curious
4. Abraxas
5. Russia
 
Лог создания рипа
 
СD1
X Lossless Decoder version 20130407 (143.0)
XLD extraction logfile from 2013-05-09 00:35:49 +0400
Fredrik Ljungqvist, Yun Kan 10 / Ten
Used drive : HL-DT-ST DVDRW GX30N (revision RP09)
Media type : Pressed CD
Ripper mode : XLD Secure Ripper
Disable audio cache : OK for the drive with a cache less than 1375KiB
Make use of C2 pointers : NO
Read offset correction : 6
Max retry count : 20
Gap status : Analyzed, Appended
TOC of the extracted CD
Track | Start | Length | Start sector | End sector
---------------------------------------------------------
1 | 00:00:00 | 10:49:42 | 0 | 48716
2 | 10:49:42 | 07:43:31 | 48717 | 83472
3 | 18:32:73 | 04:53:13 | 83473 | 105460
4 | 23:26:11 | 10:57:67 | 105461 | 154802
5 | 34:24:03 | 06:42:51 | 154803 | 185003
AccurateRip Summary
Disc not found in AccurateRip DB.
All Tracks
Album gain : -1.12 dB
Peak : 0.907410
Statistics
Read error : 0
Jitter error (maybe fixed) : 0
Retry sector count : 0
Damaged sector count : 0
Track 01
Filename : /Users/anch/Music/FLAC/Fredrik Ljungqvist, Yun Kan 10 - Unknown Year - Ten [FLAC]/01/01 - Lackritz.flac
/Users/anch/Music/FLAC/Fredrik Ljungqvist, Yun Kan 10 - Unknown Year - Ten [MP3 320]/01/01 - Lackritz.mp3
/Users/anch/Music/FLAC/Fredrik Ljungqvist, Yun Kan 10 - Unknown Year - Ten [MP3 V0]/01/01 - Lackritz.mp3
Pre-gap length : 00:02:00
Track gain : -2.94 dB
Peak : 0.907013
CRC32 hash (test run) : 9D875307
CRC32 hash : 9D875307
CRC32 hash (skip zero) : D3CE9EF2
AccurateRip v1 signature : 6C3826CF
AccurateRip v2 signature : 7E7EFCDC
->Track not present in AccurateRip database.
Statistics
Read error : 0
Jitter error (maybe fixed) : 0
Retry sector count : 0
Damaged sector count : 0
Track 02
Filename : /Users/anch/Music/FLAC/Fredrik Ljungqvist, Yun Kan 10 - Unknown Year - Ten [FLAC]/01/02 - How To Break A Fever.flac
/Users/anch/Music/FLAC/Fredrik Ljungqvist, Yun Kan 10 - Unknown Year - Ten [MP3 320]/01/02 - How To Break A Fever.mp3
/Users/anch/Music/FLAC/Fredrik Ljungqvist, Yun Kan 10 - Unknown Year - Ten [MP3 V0]/01/02 - How To Break A Fever.mp3
Track gain : 6.63 dB
Peak : 0.469421
CRC32 hash (test run) : 0D22CCD3
CRC32 hash : 0D22CCD3
CRC32 hash (skip zero) : 40817818
AccurateRip v1 signature : 7C842559
AccurateRip v2 signature : 5072CBD7
->Track not present in AccurateRip database.
Statistics
Read error : 0
Jitter error (maybe fixed) : 0
Retry sector count : 0
Damaged sector count : 0
Track 03
Filename : /Users/anch/Music/FLAC/Fredrik Ljungqvist, Yun Kan 10 - Unknown Year - Ten [FLAC]/01/03 - Hold On To Your Hat.flac
/Users/anch/Music/FLAC/Fredrik Ljungqvist, Yun Kan 10 - Unknown Year - Ten [MP3 320]/01/03 - Hold On To Your Hat.mp3
/Users/anch/Music/FLAC/Fredrik Ljungqvist, Yun Kan 10 - Unknown Year - Ten [MP3 V0]/01/03 - Hold On To Your Hat.mp3
Track gain : -0.63 dB
Peak : 0.906799
CRC32 hash (test run) : 01126AE5
CRC32 hash : 01126AE5
CRC32 hash (skip zero) : 834590E0
AccurateRip v1 signature : 7F6CE948
AccurateRip v2 signature : 725655C5
->Track not present in AccurateRip database.
Statistics
Read error : 0
Jitter error (maybe fixed) : 0
Retry sector count : 0
Damaged sector count : 0
Track 04
Filename : /Users/anch/Music/FLAC/Fredrik Ljungqvist, Yun Kan 10 - Unknown Year - Ten [FLAC]/01/04 - Fighter.flac
/Users/anch/Music/FLAC/Fredrik Ljungqvist, Yun Kan 10 - Unknown Year - Ten [MP3 320]/01/04 - Fighter.mp3
/Users/anch/Music/FLAC/Fredrik Ljungqvist, Yun Kan 10 - Unknown Year - Ten [MP3 V0]/01/04 - Fighter.mp3
Track gain : -1.28 dB
Peak : 0.907410
CRC32 hash (test run) : F2560C2A
CRC32 hash : F2560C2A
CRC32 hash (skip zero) : CE498E64
AccurateRip v1 signature : 38BE38E8
AccurateRip v2 signature : 1E539B6C
->Track not present in AccurateRip database.
Statistics
Read error : 0
Jitter error (maybe fixed) : 0
Retry sector count : 0
Damaged sector count : 0
Track 05
Filename : /Users/anch/Music/FLAC/Fredrik Ljungqvist, Yun Kan 10 - Unknown Year - Ten [FLAC]/01/05 - Kun Lun.flac
/Users/anch/Music/FLAC/Fredrik Ljungqvist, Yun Kan 10 - Unknown Year - Ten [MP3 320]/01/05 - Kun Lun.mp3
/Users/anch/Music/FLAC/Fredrik Ljungqvist, Yun Kan 10 - Unknown Year - Ten [MP3 V0]/01/05 - Kun Lun.mp3
Track gain : 2.48 dB
Peak : 0.906647
CRC32 hash (test run) : FA7843BF
CRC32 hash : FA7843BF
CRC32 hash (skip zero) : 50F7097B
AccurateRip v1 signature : D81FD9CD
AccurateRip v2 signature : 4225A062
->Track not present in AccurateRip database.
Statistics
Read error : 0
Jitter error (maybe fixed) : 0
Retry sector count : 0
Damaged sector count : 0
No errors occurred
End of status report
 
СD2
X Lossless Decoder version 20130407 (143.0)
XLD extraction logfile from 2013-05-09 01:03:07 +0400
Fredrik Ljungqvist, Yun Kan 10 / Ten
Used drive : HL-DT-ST DVDRW GX30N (revision RP09)
Media type : Pressed CD
Ripper mode : XLD Secure Ripper
Disable audio cache : OK for the drive with a cache less than 1375KiB
Make use of C2 pointers : NO
Read offset correction : 6
Max retry count : 20
Gap status : Analyzed, Appended
TOC of the extracted CD
Track | Start | Length | Start sector | End sector
---------------------------------------------------------
1 | 00:00:00 | 10:39:68 | 0 | 47992
2 | 10:39:68 | 03:46:33 | 47993 | 64975
3 | 14:26:26 | 10:22:56 | 64976 | 111681
4 | 24:49:07 | 08:07:45 | 111682 | 148251
5 | 32:56:52 | 08:17:02 | 148252 | 185528
AccurateRip Summary
Disc not found in AccurateRip DB.
All Tracks
Album gain : -1.42 dB
Peak : 0.910004
Statistics
Read error : 0
Jitter error (maybe fixed) : 0
Retry sector count : 0
Damaged sector count : 0
Track 01
Filename : /Users/anch/Music/FLAC/Fredrik Ljungqvist, Yun Kan 10 - 2013 - Ten [FLAC]/02/01 - Dolphinian Motion.flac
/Users/anch/Music/FLAC/Fredrik Ljungqvist, Yun Kan 10 - 2013 - Ten [MP3 320]/02/01 - Dolphinian Motion.mp3
/Users/anch/Music/FLAC/Fredrik Ljungqvist, Yun Kan 10 - 2013 - Ten [MP3 V0]/02/01 - Dolphinian Motion.mp3
Pre-gap length : 00:02:00
Track gain : -0.37 dB
Peak : 0.906921
CRC32 hash (test run) : 5724A44E
CRC32 hash : 5724A44E
CRC32 hash (skip zero) : 14C58BC9
AccurateRip v1 signature : 1B5E6B9B
AccurateRip v2 signature : 5471AF04
->Track not present in AccurateRip database.
Statistics
Read error : 0
Jitter error (maybe fixed) : 0
Retry sector count : 0
Damaged sector count : 0
Track 02
Filename : /Users/anch/Music/FLAC/Fredrik Ljungqvist, Yun Kan 10 - 2013 - Ten [FLAC]/02/02 - Tuulikki.flac
/Users/anch/Music/FLAC/Fredrik Ljungqvist, Yun Kan 10 - 2013 - Ten [MP3 320]/02/02 - Tuulikki.mp3
/Users/anch/Music/FLAC/Fredrik Ljungqvist, Yun Kan 10 - 2013 - Ten [MP3 V0]/02/02 - Tuulikki.mp3
Track gain : 0.42 dB
Peak : 0.841949
CRC32 hash (test run) : 43D59134
CRC32 hash : 43D59134
CRC32 hash (skip zero) : 829EE41D
AccurateRip v1 signature : 9B360689
AccurateRip v2 signature : B9B4FC45
->Track not present in AccurateRip database.
Statistics
Read error : 0
Jitter error (maybe fixed) : 0
Retry sector count : 0
Damaged sector count : 0
Track 03
Filename : /Users/anch/Music/FLAC/Fredrik Ljungqvist, Yun Kan 10 - 2013 - Ten [FLAC]/02/03 - No Panic, Just Curious.flac
/Users/anch/Music/FLAC/Fredrik Ljungqvist, Yun Kan 10 - 2013 - Ten [MP3 320]/02/03 - No Panic, Just Curious.mp3
/Users/anch/Music/FLAC/Fredrik Ljungqvist, Yun Kan 10 - 2013 - Ten [MP3 V0]/02/03 - No Panic, Just Curious.mp3
Track gain : -0.92 dB
Peak : 0.906769
CRC32 hash (test run) : 73355A80
CRC32 hash : 73355A80
CRC32 hash (skip zero) : 3355222F
AccurateRip v1 signature : 0CF465D8
AccurateRip v2 signature : 0F73ECD8
->Track not present in AccurateRip database.
Statistics
Read error : 0
Jitter error (maybe fixed) : 0
Retry sector count : 0
Damaged sector count : 0
Track 04
Filename : /Users/anch/Music/FLAC/Fredrik Ljungqvist, Yun Kan 10 - 2013 - Ten [FLAC]/02/04 - Abraxas.flac
/Users/anch/Music/FLAC/Fredrik Ljungqvist, Yun Kan 10 - 2013 - Ten [MP3 320]/02/04 - Abraxas.mp3
/Users/anch/Music/FLAC/Fredrik Ljungqvist, Yun Kan 10 - 2013 - Ten [MP3 V0]/02/04 - Abraxas.mp3
Track gain : -2.40 dB
Peak : 0.910004
CRC32 hash (test run) : 97C042D1
CRC32 hash : 97C042D1
CRC32 hash (skip zero) : 145A7FA9
AccurateRip v1 signature : 3958A7DE
AccurateRip v2 signature : FD7EA1EE
->Track not present in AccurateRip database.
Statistics
Read error : 0
Jitter error (maybe fixed) : 0
Retry sector count : 0
Damaged sector count : 0
Track 05
Filename : /Users/anch/Music/FLAC/Fredrik Ljungqvist, Yun Kan 10 - 2013 - Ten [FLAC]/02/05 - Russia.flac
/Users/anch/Music/FLAC/Fredrik Ljungqvist, Yun Kan 10 - 2013 - Ten [MP3 320]/02/05 - Russia.mp3
/Users/anch/Music/FLAC/Fredrik Ljungqvist, Yun Kan 10 - 2013 - Ten [MP3 V0]/02/05 - Russia.mp3
Track gain : -2.44 dB
Peak : 0.906769
CRC32 hash (test run) : 47020A7F
CRC32 hash : 47020A7F
CRC32 hash (skip zero) : 57BCDBBE
AccurateRip v1 signature : 3864B921
AccurateRip v2 signature : 7935BD1F
->Track not present in AccurateRip database.
Statistics
Read error : 0
Jitter error (maybe fixed) : 0
Retry sector count : 0
Damaged sector count : 0
No errors occurred
End of status report
 
Содержание индексной карты (.CUE)
 
CD1
TITLE "Ten"
PERFORMER "Fredrik Ljungqvist, Yun Kan 10"
CATALOG 7320470174111
REM GENRE "Free Jazz"
REM DATE "2013"
REM DISCNUMBER 1
REM TOTALDISCS 2
REM DISCID 3009A205
REM REPLAYGAIN_ALBUM_GAIN -1.12 dB
REM REPLAYGAIN_ALBUM_PEAK 0.907410
FILE "01 - Lackritz.flac" WAVE
TRACK 01 AUDIO
TITLE "Lackritz"
PERFORMER "Fredrik Ljungqvist, Yun Kan 10"
SONGWRITER "Fredrik Ljungqvist"
ISRC SEWAY1300101
REM REPLAYGAIN_TRACK_GAIN -2.94 dB
REM REPLAYGAIN_TRACK_PEAK 0.907013
INDEX 01 00:00:00
FILE "02 - How To Break A Fever.flac" WAVE
TRACK 02 AUDIO
TITLE "How To Break A Fever"
PERFORMER "Fredrik Ljungqvist, Yun Kan 10"
SONGWRITER "Fredrik Ljungqvist"
ISRC SEWAY1300102
REM REPLAYGAIN_TRACK_GAIN 6.63 dB
REM REPLAYGAIN_TRACK_PEAK 0.469421
INDEX 01 00:00:00
FILE "03 - Hold On To Your Hat.flac" WAVE
TRACK 03 AUDIO
TITLE "Hold On To Your Hat"
PERFORMER "Fredrik Ljungqvist, Yun Kan 10"
SONGWRITER "Fredrik Ljungqvist"
ISRC SEWAY1300103
REM REPLAYGAIN_TRACK_GAIN -0.63 dB
REM REPLAYGAIN_TRACK_PEAK 0.906799
INDEX 01 00:00:00
FILE "04 - Fighter.flac" WAVE
TRACK 04 AUDIO
TITLE "Fighter"
PERFORMER "Fredrik Ljungqvist, Yun Kan 10"
SONGWRITER "Fredrik Ljungqvist"
ISRC SEWAY1300104
REM REPLAYGAIN_TRACK_GAIN -1.28 dB
REM REPLAYGAIN_TRACK_PEAK 0.907410
INDEX 01 00:00:00
FILE "05 - Kun Lun.flac" WAVE
TRACK 05 AUDIO
TITLE "Kun Lun"
PERFORMER "Fredrik Ljungqvist, Yun Kan 10"
SONGWRITER "Fredrik Ljungqvist"
ISRC SEWAY1300105
REM REPLAYGAIN_TRACK_GAIN 2.48 dB
REM REPLAYGAIN_TRACK_PEAK 0.906647
INDEX 01 00:00:00
 
CD2
TITLE "Ten"
PERFORMER "Fredrik Ljungqvist, Yun Kan 10"
CATALOG 7320470174111
REM GENRE "Free Jazz"
REM DATE "2013"
REM DISCNUMBER 2
REM TOTALDISCS 2
REM DISCID 4B09A905
REM REPLAYGAIN_ALBUM_GAIN -1.42 dB
REM REPLAYGAIN_ALBUM_PEAK 0.910004
FILE "01 - Dolphinian Motion.flac" WAVE
TRACK 01 AUDIO
TITLE "Dolphinian Motion"
PERFORMER "Fredrik Ljungqvist, Yun Kan 10"
SONGWRITER "Fredrik Ljungqvist"
ISRC SEWAY1300106
REM REPLAYGAIN_TRACK_GAIN -0.37 dB
REM REPLAYGAIN_TRACK_PEAK 0.906921
INDEX 01 00:00:00
FILE "02 - Tuulikki.flac" WAVE
TRACK 02 AUDIO
TITLE "Tuulikki"
PERFORMER "Fredrik Ljungqvist, Yun Kan 10"
SONGWRITER "Fredrik Ljungqvist"
ISRC SEWAY1300107
REM REPLAYGAIN_TRACK_GAIN 0.42 dB
REM REPLAYGAIN_TRACK_PEAK 0.841949
INDEX 01 00:00:00
FILE "03 - No Panic, Just Curious.flac" WAVE
TRACK 03 AUDIO
TITLE "No Panic, Just Curious"
PERFORMER "Fredrik Ljungqvist, Yun Kan 10"
SONGWRITER "Fredrik Ljungqvist"
ISRC SEWAY1300108
REM REPLAYGAIN_TRACK_GAIN -0.92 dB
REM REPLAYGAIN_TRACK_PEAK 0.906769
INDEX 01 00:00:00
FILE "04 - Abraxas.flac" WAVE
TRACK 04 AUDIO
TITLE "Abraxas"
PERFORMER "Fredrik Ljungqvist, Yun Kan 10"
SONGWRITER "Fredrik Ljungqvist"
ISRC SEWAY1300109
REM REPLAYGAIN_TRACK_GAIN -2.40 dB
REM REPLAYGAIN_TRACK_PEAK 0.910004
INDEX 01 00:00:00
FILE "05 - Russia.flac" WAVE
TRACK 05 AUDIO
TITLE "Russia"
PERFORMER "Fredrik Ljungqvist, Yun Kan 10"
SONGWRITER "Fredrik Ljungqvist"
ISRC SEWAY1300110
REM REPLAYGAIN_TRACK_GAIN -2.44 dB
REM REPLAYGAIN_TRACK_PEAK 0.906769
INDEX 01 00:00:00
 
Об альбоме
Acclaimed Swedish reed player Fredrik Ljungkvist's key solo outfit is the Yun Kan band. This band, in its incarnation as a quintet, released two remarkable albums, Yun Kan 12345 and Badaling (Caprice, 2004 and 2007) and in recent years operated in a slimmed down version as Yun Kan 3 and as an ambitious outgrowth of the quintet as Yun Kan 10. Now, finally, more than five years after its last documentation, this ensemble has been beautifully recorded by Swedish Radio.
Ljungkvist's ten original compositions swing between opposite sonic poles. It is a big band that rarely exhaust its full capabilities. The musical language encompasses modern, free-bop forms and new chamber music in well-crafted segments, sometimes focuses on soloists and at other times highlights Yun Kan as a musical collective. It bridges the gap between solid, intricate textures and powerful, intuitive free improvisations and between the contemplative and the ironic. It emphasizes unique sonic elements such as the operatic vocals of Sofia Jernberg, a member of Seval and The New Songs, or the vintage synthesizer sounds of Mattias Risberg. Ljungvist's playing can be fiery and expressive but also fragile and poetic. But eventually Ljungkvist and Yun Kan 10 aim to find a balance between these opposites, to find an organic forms of articulation that will cover the spectrum.
All the compositions were arranged by Ljungkvist and are spread on a double album, make full use of the singular and resourceful voices of the ensemble members. On the first disc, "Lackritz" stresses the playful, suggestive vocals of Jernberg and the expressive tuba of Per-Åke Holmlander, a member of the original quintet as well of Peter Brötzmann's Chicago Tentet and the Barry Guy Orchestra, contrasted with the sonic searches of violinist Katt Hernandez and bassist Mattias Wellin, also of the quintet, and the free improvisations of drummers Jon Fält, another member of the quintet, and Raymond Strid. "How To Break A Fever" is a quiet and subtle piece that attempts to find middle ground between the celstial vocals of Jernberg and the low drone of the horn and brass instruments.
Only on "Hold On To Your Hat!" does Yun Kan 10 begin to sound like a band whose musical vocabulary is rooted in jazz legacy, swinging happily over an infectious melodic theme, with passionate solos by trombonist Mats Äleklint and Ljunkvist. A chaotic, dark soundscape is formed on "Fighter," torn between the idiosyncratic vocals of Jernberg, the brooding keyboards of Risberg and the whole ensemble. "Kun Lun" revolves between the restless, otherwoldly sonic explorations of Jernberg, Risberg, Holmlander and Äleklint and calm reasoning.
The second disc continues to present this ensemble's ability to create a colorful range of arresting forms. It opens with the poetic "Dolphinian Motion," structured around Ljungkvist and Jernberg, in a delicate dance that suddenly erupts into an energetic storm and then gradually involves other participants in the emotional dance. Drummers Fält and Strid stimulate each other on "Tuulikki" and anchor Ljungkvist and Jernberg flights in a flexible rhythmic framework. "No Panic, Just Curious" patiently matures from a reserved, chamber jazz form, featuring Hernandez, to an open-ended, collective free improvisation, linked cleverly with the powerful, orchestral arrangement of " Abraxas," concluding with a charismatic solo by Ljungkvist. The final, contemplative composition, "Russia," finds a fragile balance between all the previous forms and the highly personal voices of its members and shines with elegant creative energy.
A masterful achievement. Ten presents Ljungkvist's musical vision at its best. One of the best releases, so far, of 2013. (Eyal Hareuveni, AllAboutJazz)
 
Состав
Fredrik Ljungkvist - soprano, tenor and baritone saxophones, clarinet
Mats Äleklint - trombone
Per-Åke Holmlander - tuba
Klas Nevrin - piano
Mattias Risberg - hammond, ARP pro soloist and Moog Taurus
Katt Hernandez - violin
Sofia Jernberg - voice
Mattias Welin - bass
Jon Fält - drums
Raymond Strid - drums
Any questions -> support@pro-jazz.com. По всем вопросам пишите -> support@pro-jazz.com
13:47
153
Нет комментариев. Ваш будет первым!