Вы используете незарегистрированную версию компонента "Вкладки"!

Поиск

(Avant-Garde Jazz, Experimental) Karin Krog - Different Days, Different Ways - 2004, FLAC (tracks+.cue), lossless

(Avant-Garde Jazz, Experimental) Karin Krog - Different Days, Different Ways - 2004, FLAC (tracks+.cue), lossless
Треклист:
Karin Krog - Different Days, Different Ways
Жанр: Avant-Garde Jazz, Experimental
Страна-производитель диска: Japan
Годы записи: 1972-74
Год издания: 2004
Издатель (лейбл): Philips
Номер по каталогу: MZCF-1035
Страна: Norway
Аудиокодек: FLAC (*.flac)
Тип рипа: tracks+.cue
Битрейт аудио: lossless
Продолжительность: 48:35
Источник (релизер): собственный рип
Наличие сканов в содержимом раздачи: да
1 God Bless The Child
2 Round Midnight
3 Lonely Woman
4 Aria With Fontano Mix
5 For My Two J.B's
6 Santa Monica
7 As A Wife Has A Cow
8 Tine's Nightmare
9 Glissando
10 Different Days, Different Ways
Recorded:
Montreux, Jun. 21, 1972 (1-3, 8-10)
Oslo, Dec. 12, 1974 (4)
Oslo, Jan. 19, 1972 (5-7)Релиз создан в память Torturegarden
 
Лог создания рипа
Exact Audio Copy V1.0 beta 3 from 29. August 2011
EAC extraction logfile from 11. November 2012, 19:52
Karin Krog / Different Days, Different Ways
Used drive : SlimtypeDVD A DS8A5SH Adapter: 0 ID: 1
Read mode : Secure
Utilize accurate stream : Yes
Defeat audio cache : Yes
Make use of C2 pointers : No
Read offset correction : 6
Overread into Lead-In and Lead-Out : No
Fill up missing offset samples with silence : Yes
Delete leading and trailing silent blocks : No
Null samples used in CRC calculations : Yes
Used interface : Native Win32 interface for Win NT & 2000
Gap handling : Appended to previous track
Used output format : User Defined Encoder
Selected bitrate : 128 kBit/s
Quality : High
Add ID3 tag : No
Command line compressor : C:\Program Files (x86)\Exact Audio Copy\Flac\flac.exe
Additional command line options : -V -8 -T "Genre=%genre%" -T "Artist=%artist%" -T "Title=%title%" -T "Album=%albumtitle%" -T "Date=%year%" -T "Tracknumber=%tracknr%" -T "Comment=%comment%" %source%
TOC of the extracted CD
Track | Start | Length | Start sector | End sector
---------------------------------------------------------
1 | 0:00.00 | 3:24.55 | 0 | 15354
2 | 3:24.55 | 7:38.56 | 15355 | 49760
3 | 11:03.36 | 6:43.72 | 49761 | 80057
4 | 17:47.33 | 6:01.17 | 80058 | 107149
5 | 23:48.50 | 0:36.16 | 107150 | 109865
6 | 24:24.66 | 3:14.32 | 109866 | 124447
7 | 27:39.23 | 0:57.47 | 124448 | 128769
8 | 28:36.70 | 7:19.28 | 128770 | 161722
9 | 35:56.23 | 4:29.14 | 161723 | 181911
10 | 40:25.37 | 8:14.26 | 181912 | 218987
Track 1
Filename C:\Users\Илья\Desktop\Different Days, Different Ways\01. God Bless The Child (live).wav
Pre-gap length 0:00:02.00
Peak level 98.6 %
Extraction speed 2.5 X
Track quality 100.0 %
Test CRC 16D36457
Copy CRC 16D36457
Copy OK
Track 2
Filename C:\Users\Илья\Desktop\Different Days, Different Ways\02. Round Midnight (live).wav
Peak level 98.7 %
Extraction speed 3.2 X
Track quality 100.0 %
Test CRC 0FFCBA5F
Copy CRC 0FFCBA5F
Copy OK
Track 3
Filename C:\Users\Илья\Desktop\Different Days, Different Ways\03. Lonely Woman (live).wav
Peak level 98.7 %
Extraction speed 3.6 X
Track quality 100.0 %
Test CRC 86308FB2
Copy CRC 86308FB2
Copy OK
Track 4
Filename C:\Users\Илья\Desktop\Different Days, Different Ways\04. Aria With Fontano Mix.wav
Peak level 83.4 %
Extraction speed 3.6 X
Track quality 99.9 %
Test CRC 907A5BF5
Copy CRC 907A5BF5
Copy OK
Track 5
Filename C:\Users\Илья\Desktop\Different Days, Different Ways\05. For My Two J.B`s.wav
Pre-gap length 0:00:02.20
Peak level 87.2 %
Extraction speed 2.1 X
Track quality 100.0 %
Test CRC 2173BD52
Copy CRC 2173BD52
Copy OK
Track 6
Filename C:\Users\Илья\Desktop\Different Days, Different Ways\06. Santa Monica.wav
Pre-gap length 0:00:03.72
Peak level 92.9 %
Extraction speed 3.8 X
Track quality 100.0 %
Test CRC 83D5100C
Copy CRC 83D5100C
Copy OK
Track 7
Filename C:\Users\Илья\Desktop\Different Days, Different Ways\07. As A Wife Has A Cow.wav
Pre-gap length 0:00:06.11
Peak level 53.0 %
Extraction speed 2.8 X
Track quality 100.0 %
Test CRC ABCE491E
Copy CRC ABCE491E
Copy OK
Track 8
Filename C:\Users\Илья\Desktop\Different Days, Different Ways\08. Tine`s Nightmare (live).wav
Pre-gap length 0:00:02.47
Peak level 98.7 %
Extraction speed 4.6 X
Track quality 100.0 %
Test CRC 8EE76D03
Copy CRC 8EE76D03
Copy OK
Track 9
Filename C:\Users\Илья\Desktop\Different Days, Different Ways\09. Glissando (live).wav
Peak level 98.6 %
Extraction speed 4.6 X
Track quality 100.0 %
Test CRC AB7A92FB
Copy CRC AB7A92FB
Copy OK
Track 10
Filename C:\Users\Илья\Desktop\Different Days, Different Ways\10. Different Days, Different Ways (live).wav
Pre-gap length 0:00:04.33
Peak level 98.8 %
Extraction speed 4.8 X
Track quality 99.9 %
Test CRC 27B20A74
Copy CRC 27B20A74
Copy OK
No errors occurred
End of status report
==== Log checksum 04753E6C1446A6B25B88C83E786A03FB87F03D794474E154D7D20759A3ADDF01 ====
 
Содержание индексной карты (.CUE)
REM GENRE Avantgarde
REM DATE 2004
REM DISCID 820B670A
REM COMMENT "ExactAudioCopy v1.0b3"
PERFORMER "Karin Krog"
TITLE "Different Days, Different Ways"
FILE "01. God Bless The Child (live).wav" WAVE
TRACK 01 AUDIO
TITLE "God Bless The Child (live)"
PERFORMER "Karin Krog"
INDEX 01 00:00:00
FILE "02. Round Midnight (live).wav" WAVE
TRACK 02 AUDIO
TITLE "Round Midnight (live)"
PERFORMER "Karin Krog"
INDEX 01 00:00:00
FILE "03. Lonely Woman (live).wav" WAVE
TRACK 03 AUDIO
TITLE "Lonely Woman (live)"
PERFORMER "Karin Krog"
INDEX 01 00:00:00
FILE "04. Aria With Fontano Mix.wav" WAVE
TRACK 04 AUDIO
TITLE "Aria With Fontano Mix"
PERFORMER "Karin Krog"
INDEX 01 00:00:00
TRACK 05 AUDIO
TITLE "For My Two J.B`s"
PERFORMER "Karin Krog"
INDEX 00 05:58:72
FILE "05. For My Two J.B`s.wav" WAVE
INDEX 01 00:00:00
TRACK 06 AUDIO
TITLE "Santa Monica"
PERFORMER "Karin Krog"
INDEX 00 00:32:19
FILE "06. Santa Monica.wav" WAVE
INDEX 01 00:00:00
TRACK 07 AUDIO
TITLE "As A Wife Has A Cow"
PERFORMER "Karin Krog"
INDEX 00 03:08:21
FILE "07. As A Wife Has A Cow.wav" WAVE
INDEX 01 00:00:00
TRACK 08 AUDIO
TITLE "Tine`s Nightmare (live)"
PERFORMER "Karin Krog"
INDEX 00 00:55:00
FILE "08. Tine`s Nightmare (live).wav" WAVE
INDEX 01 00:00:00
FILE "09. Glissando (live).wav" WAVE
TRACK 09 AUDIO
TITLE "Glissando (live)"
PERFORMER "Karin Krog"
INDEX 01 00:00:00
TRACK 10 AUDIO
TITLE "Different Days, Different Ways (live)"
PERFORMER "Karin Krog"
INDEX 00 04:24:56
FILE "10. Different Days, Different Ways (live).wav" WAVE
INDEX 01 00:00:00
 
Состав
Karin Krog - vocals, electronics (4-7)
Arild Andersen - bass (1-3)
Joachim Kuhn - piano, alto sax (8-10)
Eje Thelin - trombone (8-10)
Palle Danielsson - bass (8-10)
Aldo Romano - drums (8-10)
Adelhard Roidinger - guitar (8-10)
Elisabeth Sønstevikd - harp (6)
 
От себя
Поначалу, взглянув на обложку, ожидал нечто традиционного, в духе сборника "One on one", тем более альбом открывают довольно заигранные композиции, что у всех на слуху. Но дальше начинается настоящий беспредел. Автор четвертого трека - John Cage, - и это не опечатка, - один из главных американских авангардистов Америки. И это что-то в духе хэнковского Maiden Voyage. Далее идут собственные сочинения Карин - довольно жесткие авангардистские импровизации с полифонией вокализов, обработанных на синтезаторе; наиболее лиричная из которых Santa Monica. Первые три трека на диске и три последних - выступление на фестивале в Монтрё в 72-м году. На мой взгляд лучшая вещь на диске Aria with Fontano Mix; хотя Round Midnight исполнена в несколько другом ключе, чем обычно, и здесь позволяет взглянуть на себя с иной стороны, - дает прочувствовать свою глубину что ли.
Any questions -> support@pro-jazz.com. По всем вопросам пишите -> support@pro-jazz.com
05:24
279
Нет комментариев. Ваш будет первым!