Вы используете незарегистрированную версию компонента "Вкладки"!

Поиск

(Avant-garde Jazz, Electronic) Pulsarus - Digital Freejazz - 2005, APE (image+.cue), lossless

Треклист:
Pulsarus / Digital Freejazz
Жанр: Avant-garde Jazz, Electronic
Страна-производитель диска: Poland
Год издания: 2005
Издатель (лейбл): Tone Industria
Номер по каталогу: TI 015
Страна: Poland
Аудиокодек: APE (*.ape)
Тип рипа: image+.cue
Битрейт аудио: lossless
Продолжительность: 1:11:54
Источник (релизер): SurowyTato
Наличие сканов в содержимом раздачи: да
Треклист:
1. Mental Harem [6:57]
2. The Great Escape [11:33]
3. Death Penalty [10:16]
4. Comet Tempel I [4:44]
5. ElectroSpaceBop (Cyborg Explosive Nucleon-Chip Love) [19:54]
6. Autumn Algorithm [7:55]
7. Snowflake/Comet Tempel I Back [10:30]
 
Лог создания рипа
EAC extraction logfile from 3. April 2007, 12:23 for CD
Pulsarus / Digital Freejazz
Used drive : LITE-ON DVDRW SOHW-1213S Adapter: 1 ID: 1
Read mode : Secure with NO C2, accurate stream, disable cache
Read offset correction : 12
Overread into Lead-In and Lead-Out : No
Used output format : Internal WAV Routines
44.100 Hz; 16 Bit; Stereo
Other options :
Fill up missing offset samples with silence : Yes
Delete leading and trailing silent blocks : No
Installed external ASPI interface
Range status and errors
Selected range
Filename E:\INCOMING\EAC\Pulsarus - Digital Freejazz.wav
Peak level 99.0 %
Range quality 99.9 %
CRC 870D1CC3
Copy OK
No errors occured
End of status report
 
Содержание индексной карты (.CUE)
REM GENRE Avant-garde Jazz, Electronic
REM DATE 2005
REM DISCID 5810DA07
REM COMMENT "ExactAudioCopy v0.95b4"
PERFORMER "Pulsarus"
TITLE "Digital Freejazz"
FILE "Pulsarus - Digital Freejazz.ape" WAVE
TRACK 01 AUDIO
TITLE "Mental Harem"
PERFORMER "Pulsarus"
INDEX 00 00:00:00
INDEX 01 00:04:00
TRACK 02 AUDIO
TITLE "The Great Escape"
PERFORMER "Pulsarus"
INDEX 01 07:01:27
TRACK 03 AUDIO
TITLE "Death Penalty"
PERFORMER "Pulsarus"
INDEX 01 18:35:13
TRACK 04 AUDIO
TITLE "Comet Tempel I"
PERFORMER "Pulsarus"
INDEX 01 28:52:07
TRACK 05 AUDIO
TITLE "ElectroSpaceBop (Cyborg Explosive Nucleon-Chip Love)"
PERFORMER "Pulsarus"
INDEX 01 33:37:04
TRACK 06 AUDIO
TITLE "Autumn Algorithm"
PERFORMER "Pulsarus"
INDEX 01 53:32:03
TRACK 07 AUDIO
TITLE "Snowflake/Comet Tempel I Back"
PERFORMER "Pulsarus"
INDEX 01 61:27:58
 
Об альбоме (сборнике)
Jazz is what? Maybe jazz is what you are. But I love other musical devices and what? Piotr is like a forest and Jakub is always moving. It's all hardware and love. Great space. But pulse and crisp talks, forget the answer.
What is jazz?
Any question.
Any.
 
Состав
Dominik Strychalski - electronified alto and tenor recorders, live electronics
Piotr Rachon - electronic piano
Jakub Rutkowski - acoustic and electronic drums
Any questions -> support@pro-jazz.com. По всем вопросам пишите -> support@pro-jazz.com
00:41
116
Нет комментариев. Ваш будет первым!