Поиск

(Avant-Garde Jazz, Downtown, Fusion) [CD] Roy Nathanson & Curtis Fowlkes & The Jazz Passengers - Deranged & Decomposed - 1989, FLAC (tracks+.cue), lossless

(Avant-Garde Jazz, Downtown, Fusion) [CD] Roy Nathanson & Curtis Fowlkes & The Jazz Passengers - Deranged & Decomposed - 1989, FLAC (tracks+.cue), lossless
Треклист:
The Jazz Passengers / Deranged & Decomposed
Жанр: Avant-Garde Jazz, Downtown, Fusion
Носитель: CD
Год издания: 1989
Издатель (лейбл): Les Disques du Crepuscule
Номер по каталогу: TWI-846-2
Аудиокодек: FLAC (*.flac)
Тип рипа: tracks+.cue
Битрейт аудио: lossless
Продолжительность: 00:48:24
Источник (релизер): badbetty
Наличие сканов в содержимом раздачи: нет
Треклист:
1 Decomposer By A Neck 7:04
2 We The Parisians 4:30
3 Somewhere In New Jersey 4:47
4 Tikkun 7:30
5 Strange Love 1:20
6 In No Language 3:49
7 None But The Righteous (Organ, Backing Vocals – Jeff Young, Vocals – Paolo Pace) 5:16
8 Salty Tears 4:34
9 Basketball Fish 5:20
10 You Don't Know What Love Is 4:00
 
Лог создания рипа
X Lossless Decoder version 20110703 (135.1)
XLD extraction logfile from 2011-07-22 10:37:31 -0700
Roy Nathanson, Curtis Fowlkes & The Jazz Passengers / Deranged & Decomposed
Used drive : MATSHITA DVD-R UJ-857D (revision KCVB)
Ripper mode : XLD Secure Ripper
Disable audio cache : OK for the drive with a cache less than 1375KiB
Make use of C2 pointers : NO
Read offset correction : 102
Max retry count : 100
Gap status : Analyzed, Appended
TOC of the extracted CD
Track | Start | Length | Start sector | End sector
---------------------------------------------------------
1 | 00:00:00 | 07:04:17 | 0 | 31816
2 | 07:04:17 | 04:30:08 | 31817 | 52074
3 | 11:34:25 | 04:47:55 | 52075 | 73654
4 | 16:22:05 | 07:40:07 | 73655 | 108161
5 | 24:02:12 | 01:20:58 | 108162 | 114219
6 | 25:22:70 | 03:49:12 | 114220 | 131406
7 | 29:12:07 | 05:16:43 | 131407 | 155149
8 | 34:28:50 | 04:34:32 | 155150 | 175731
9 | 39:03:07 | 05:20:18 | 175732 | 199749
10 | 44:23:25 | 04:00:55 | 199750 | 217804
AccurateRip Summary
Disc not found in AccurateRip DB.
All Tracks
Album gain : 0.54 dB
Peak : 0.924103
Statistics
Read error : 0
Jitter error (maybe fixed) : 0
Retry sector count : 0
Damaged sector count : 0
Track 01
Filename : /XLD/Roy Nathanson, Curtis Fowlkes & The Jazz Passengers - 1988 - Deranged & Decomposed [FLAC]/01 Decomposer By a Neck.flac
/XLD/Roy Nathanson, Curtis Fowlkes & The Jazz Passengers - 1988 - Deranged & Decomposed [MPEG-4 AAC (320)]/01 Decomposer By a Neck.m4a
Pre-gap length : 00:02:00
Track gain : 0.00 dB
Peak : 0.699554
CRC32 hash (test run) : E89A23CD
CRC32 hash : E89A23CD
CRC32 hash (skip zero) : B2BA61F0
AccurateRip signature : CE26067D
->Track not present in AccurateRip database.
Statistics
Read error : 0
Jitter error (maybe fixed) : 0
Retry sector count : 0
Damaged sector count : 0
Track 02
Filename : /XLD/Roy Nathanson, Curtis Fowlkes & The Jazz Passengers - 1988 - Deranged & Decomposed [FLAC]/02 We the Parisians.flac
/XLD/Roy Nathanson, Curtis Fowlkes & The Jazz Passengers - 1988 - Deranged & Decomposed [MPEG-4 AAC (320)]/02 We the Parisians.m4a
Pre-gap length : 00:03:52
Track gain : -0.89 dB
Peak : 0.875183
CRC32 hash (test run) : 0D47970A
CRC32 hash : 0D47970A
CRC32 hash (skip zero) : 15210B9B
AccurateRip signature : 3930A911
->Track not present in AccurateRip database.
Statistics
Read error : 0
Jitter error (maybe fixed) : 0
Retry sector count : 0
Damaged sector count : 0
Track 03
Filename : /XLD/Roy Nathanson, Curtis Fowlkes & The Jazz Passengers - 1988 - Deranged & Decomposed [FLAC]/03 Somewhere in New Jersey.flac
/XLD/Roy Nathanson, Curtis Fowlkes & The Jazz Passengers - 1988 - Deranged & Decomposed [MPEG-4 AAC (320)]/03 Somewhere in New Jersey.m4a
Pre-gap length : 00:04:05
Track gain : 2.68 dB
Peak : 0.666046
CRC32 hash (test run) : BDE9AC69
CRC32 hash : BDE9AC69
CRC32 hash (skip zero) : 81E91415
AccurateRip signature : 22AFAEE4
->Track not present in AccurateRip database.
Statistics
Read error : 0
Jitter error (maybe fixed) : 0
Retry sector count : 0
Damaged sector count : 0
Track 04
Filename : /XLD/Roy Nathanson, Curtis Fowlkes & The Jazz Passengers - 1988 - Deranged & Decomposed [FLAC]/04 Tikkun.flac
/XLD/Roy Nathanson, Curtis Fowlkes & The Jazz Passengers - 1988 - Deranged & Decomposed [MPEG-4 AAC (320)]/04 Tikkun.m4a
Pre-gap length : 00:01:43
Track gain : 2.46 dB
Peak : 0.924103
CRC32 hash (test run) : 40F83F06
CRC32 hash : 40F83F06
CRC32 hash (skip zero) : 516C35E3
AccurateRip signature : 5254339C
->Track not present in AccurateRip database.
Statistics
Read error : 0
Jitter error (maybe fixed) : 0
Retry sector count : 0
Damaged sector count : 0
Track 05
Filename : /XLD/Roy Nathanson, Curtis Fowlkes & The Jazz Passengers - 1988 - Deranged & Decomposed [FLAC]/05 Strange Love.flac
/XLD/Roy Nathanson, Curtis Fowlkes & The Jazz Passengers - 1988 - Deranged & Decomposed [MPEG-4 AAC (320)]/05 Strange Love.m4a
Pre-gap length : 00:01:30
Track gain : 3.33 dB
Peak : 0.444916
CRC32 hash (test run) : E3679D59
CRC32 hash : E3679D59
CRC32 hash (skip zero) : 64D57FD0
AccurateRip signature : C7E03AEA
->Track not present in AccurateRip database.
Statistics
Read error : 0
Jitter error (maybe fixed) : 0
Retry sector count : 0
Damaged sector count : 0
Track 06
Filename : /XLD/Roy Nathanson, Curtis Fowlkes & The Jazz Passengers - 1988 - Deranged & Decomposed [FLAC]/06 In No Languages.flac
/XLD/Roy Nathanson, Curtis Fowlkes & The Jazz Passengers - 1988 - Deranged & Decomposed [MPEG-4 AAC (320)]/06 In No Languages.m4a
Pre-gap length : 00:01:05
Track gain : -0.84 dB
Peak : 0.749451
CRC32 hash (test run) : F59BC94F
CRC32 hash : F59BC94F
CRC32 hash (skip zero) : 7B9E196E
AccurateRip signature : 9104333E
->Track not present in AccurateRip database.
Statistics
Read error : 0
Jitter error (maybe fixed) : 0
Retry sector count : 0
Damaged sector count : 0
Track 07
Filename : /XLD/Roy Nathanson, Curtis Fowlkes & The Jazz Passengers - 1988 - Deranged & Decomposed [FLAC]/07 None But the Righteous.flac
/XLD/Roy Nathanson, Curtis Fowlkes & The Jazz Passengers - 1988 - Deranged & Decomposed [MPEG-4 AAC (320)]/07 None But the Righteous.m4a
Pre-gap length : 00:00:60
Track gain : -0.53 dB
Peak : 0.846558
CRC32 hash (test run) : 2F1DD949
CRC32 hash : 2F1DD949
CRC32 hash (skip zero) : ED2EB89F
AccurateRip signature : 751C0597
->Track not present in AccurateRip database.
Statistics
Read error : 0
Jitter error (maybe fixed) : 0
Retry sector count : 0
Damaged sector count : 0
Track 08
Filename : /XLD/Roy Nathanson, Curtis Fowlkes & The Jazz Passengers - 1988 - Deranged & Decomposed [FLAC]/08 Salty Tears.flac
/XLD/Roy Nathanson, Curtis Fowlkes & The Jazz Passengers - 1988 - Deranged & Decomposed [MPEG-4 AAC (320)]/08 Salty Tears.m4a
Pre-gap length : 00:03:05
Track gain : 4.28 dB
Peak : 0.512299
CRC32 hash (test run) : F6032AD0
CRC32 hash : F6032AD0
CRC32 hash (skip zero) : D712A844
AccurateRip signature : FD947C76
->Track not present in AccurateRip database.
Statistics
Read error : 0
Jitter error (maybe fixed) : 0
Retry sector count : 0
Damaged sector count : 0
Track 09
Filename : /XLD/Roy Nathanson, Curtis Fowlkes & The Jazz Passengers - 1988 - Deranged & Decomposed [FLAC]/09 Basketball Fish.flac
/XLD/Roy Nathanson, Curtis Fowlkes & The Jazz Passengers - 1988 - Deranged & Decomposed [MPEG-4 AAC (320)]/09 Basketball Fish.m4a
Pre-gap length : 00:03:30
Track gain : 1.65 dB
Peak : 0.839355
CRC32 hash (test run) : 36F8CBD7
CRC32 hash : 36F8CBD7
CRC32 hash (skip zero) : FE137B1B
AccurateRip signature : 98A6AE7F
->Track not present in AccurateRip database.
Statistics
Read error : 0
Jitter error (maybe fixed) : 0
Retry sector count : 0
Damaged sector count : 0
Track 10
Filename : /XLD/Roy Nathanson, Curtis Fowlkes & The Jazz Passengers - 1988 - Deranged & Decomposed [FLAC]/10 You Don't Know What Love Is.flac
/XLD/Roy Nathanson, Curtis Fowlkes & The Jazz Passengers - 1988 - Deranged & Decomposed [MPEG-4 AAC (320)]/10 You Don't Know What Love Is.m4a
Pre-gap length : 00:02:20
Track gain : 3.29 dB
Peak : 0.698975
CRC32 hash (test run) : BFFA9CEA
CRC32 hash : BFFA9CEA
CRC32 hash (skip zero) : E3141716
AccurateRip signature : 5880276F
->Track not present in AccurateRip database.
Statistics
Read error : 0
Jitter error (maybe fixed) : 0
Retry sector count : 0
Damaged sector count : 0
No errors occurred
End of status report
 
Содержание индексной карты (.CUE)
TITLE "Deranged & Decomposed"
PERFORMER "Roy Nathanson, Curtis Fowlkes & The Jazz Passengers"
REM GENRE "Jazz"
REM DATE "1988"
REM DISCID 8C0B580A
REM REPLAYGAIN_ALBUM_GAIN 0.54 dB
REM REPLAYGAIN_ALBUM_PEAK 0.924103
FILE "01 Decomposer By a Neck.flac" WAVE
TRACK 01 AUDIO
TITLE "Decomposer By a Neck"
REM REPLAYGAIN_TRACK_GAIN 0.00 dB
REM REPLAYGAIN_TRACK_PEAK 0.699554
INDEX 01 00:00:00
TRACK 02 AUDIO
TITLE "We the Parisians"
REM REPLAYGAIN_TRACK_GAIN -0.89 dB
REM REPLAYGAIN_TRACK_PEAK 0.875183
INDEX 00 07:00:40
FILE "02 We the Parisians.flac" WAVE
INDEX 01 00:00:00
TRACK 03 AUDIO
TITLE "Somewhere in New Jersey"
REM REPLAYGAIN_TRACK_GAIN 2.68 dB
REM REPLAYGAIN_TRACK_PEAK 0.666046
INDEX 00 04:26:03
FILE "03 Somewhere in New Jersey.flac" WAVE
INDEX 01 00:00:00
TRACK 04 AUDIO
TITLE "Tikkun"
REM REPLAYGAIN_TRACK_GAIN 2.46 dB
REM REPLAYGAIN_TRACK_PEAK 0.924103
INDEX 00 04:46:12
FILE "04 Tikkun.flac" WAVE
INDEX 01 00:00:00
TRACK 05 AUDIO
TITLE "Strange Love"
REM REPLAYGAIN_TRACK_GAIN 3.33 dB
REM REPLAYGAIN_TRACK_PEAK 0.444916
INDEX 00 07:38:52
FILE "05 Strange Love.flac" WAVE
INDEX 01 00:00:00
TRACK 06 AUDIO
TITLE "In No Languages"
REM REPLAYGAIN_TRACK_GAIN -0.84 dB
REM REPLAYGAIN_TRACK_PEAK 0.749451
INDEX 00 01:19:53
FILE "06 In No Languages.flac" WAVE
INDEX 01 00:00:00
TRACK 07 AUDIO
TITLE "None But the Righteous"
REM REPLAYGAIN_TRACK_GAIN -0.53 dB
REM REPLAYGAIN_TRACK_PEAK 0.846558
INDEX 00 03:48:27
FILE "07 None But the Righteous.flac" WAVE
INDEX 01 00:00:00
TRACK 08 AUDIO
TITLE "Salty Tears"
REM REPLAYGAIN_TRACK_GAIN 4.28 dB
REM REPLAYGAIN_TRACK_PEAK 0.512299
INDEX 00 05:13:38
FILE "08 Salty Tears.flac" WAVE
INDEX 01 00:00:00
TRACK 09 AUDIO
TITLE "Basketball Fish"
REM REPLAYGAIN_TRACK_GAIN 1.65 dB
REM REPLAYGAIN_TRACK_PEAK 0.839355
INDEX 00 04:31:02
FILE "09 Basketball Fish.flac" WAVE
INDEX 01 00:00:00
TRACK 10 AUDIO
TITLE "You Don't Know What Love Is"
REM REPLAYGAIN_TRACK_GAIN 3.29 dB
REM REPLAYGAIN_TRACK_PEAK 0.698975
INDEX 00 05:17:73
FILE "10 You Don't Know What Love Is.flac" WAVE
INDEX 01 00:00:00
 
Об исполнителе (группе)
Artist Biography by Steve Huey
The Jazz Passengers were founded in 1987 by Roy Nathanson and trombonist Curtis Fowlkes in order to bring lively humor and entertainment back into modern jazz. The name, a takeoff on Art Blakey's Jazz Messengers, signifies that the musicians are merely along for a wild ride. The band also includes percussionist E.J. Rodriguez, bassist Brad Jones (a cohort of Elvin Jones and Muhal Richard Abrams), Steely Dan touring vibist Bill Ware and guitarist Marc Ribot, who has appeared on albums by noted singer/songwriters Elvis Costello and Tom Waits. Nathanson and Fowlkes met while playing in the pit band for the Big Apple Circus, which gave them the opportunity to play the Charles Mingus music they loved and pay the bills as well. The two joined John Lurie's Lounge Lizards and left after a short time to record a duet album together. They added more and more studio musicians until eventually, the Jazz Passengers were born. The group made a name for itself in the New York City avant-garde scene centering on the Knitting Factory with its hybrid of Mingus-influenced postbop, dance rhythms and original tunes complete with lyrics and/or entertaining stories. After five albums on small independent labels, the Passengers finally recorded their major-label debut, Jazz Passengers in Love. In 1994, rock singer Deborah Harry started touring and recording with the band.
 
Состав
Bass – Brad Jones
Guitar, Trumpet – Marc Ribot
Percussion – E.J. Rodriguez
Producer – Hugo Dwyer, Roy Nathanson
Saxophone [Tenor, Alto, Soprano], Clarinet – Roy Nathanson
Trombone – Curtis Fowlkes
Vibraphone – Bill Ware
Violin – Jim Nolet
Vocals – Curtis Fowlkes, E.J. Rodriguez, Roy Nathanson
20:16
253
Нет комментариев. Ваш будет первым!