Вы используете незарегистрированную версию компонента "Вкладки"!

Поиск

(Avant-garde Jazz) David Liebman - The Tree - 1991, FLAC (image+.cue), lossless

(Avant-garde Jazz) David Liebman - The Tree - 1991, FLAC (image+.cue), lossless
Треклист:
David Liebman - The Tree
Жанр: Avantgarde Jazz
Год выпуска диска: 1991
Производитель диска: Italy (Soul Note)
Аудио кодек: FLAC
Тип рипа: image+.cue
Битрейт аудио: lossless
Трэклист:
 
скрытый текст
1. Roots-take I 3:51
2. Trunk-take I [take 1] 4:37
3. Limbs-take I 4:01
4. Branches-take I 4:45
5. Twigs-take I [take1] 4:52
6. Leaves-take I 3:32
7. Leaves-take Ii 3:30
8. Twigs-take Ii [take 2] 4:11
9. Branches-take Ii 4:32
10. Limbs-take Ii 4:40
11. Trunk-take Ii [take 2] 4:55
12. Roots-take Ii
Доп. информация: David Liebman – soprano saxophone
Рип с оригинального диска из собственной коллекции, сканы прилагаются.
 
Отчёт EAC
Exact Audio Copy V0.99 prebeta 3 from 28. July 2007
Отчёт EAC об извлечении, выполненном 7. августа 2009, 18:37
Dave Liebman / The Tree
Дисковод: _NEC DVD_RW ND-3540A Adapter: 3 ID: 1
Режим чтения : Достоверность
Использование точного потока : Да
Отключение кэша аудио : Да
Использование указателей C2 : Нет
Коррекция смещения при чтении : 48
Способность читать области Lead-in и Lead-out : Нет
Заполнение пропущенных сэмплов тишиной : Да
Удаление блоков с тишиной в начале и конце : Нет
При вычислениях CRC использовались нулевые сэмплы : Да
Интерфейс : Установленный внешний ASPI-интерфейс
Выходной формат : Пользовательский кодировщик
Выбранный битрейт : 768 kBit/s
Качество : Высокий
Добавление ID3-тэга : Нет
Утилита сжатия : D:\БЫВШИЙ G\Program Files\Exact Audio Copy\FLAC\FLAC.EXE
Дополнительные параметры : -6 -V -T "ARTIST=%a" -T "TITLE=%t" -T "ALBUM=%g" -T "DATE=%y" -T "TRACKNUMBER=%n" -T "GENRE=%m" -T "COMMENT=%e" %s -o %d
TOC извлечённого CD
Трек | Старт | Длительность | Начальный сектор | Конечный сектор
---------------------------------------------------------------------
1 | 0:00.33 | 3:51.00 | 33 | 17357
2 | 3:51.33 | 4:37.70 | 17358 | 38202
3 | 8:29.28 | 4:01.25 | 38203 | 56302
4 | 12:30.53 | 4:45.55 | 56303 | 77732
5 | 17:16.33 | 4:52.47 | 77733 | 99679
6 | 22:09.05 | 3:32.28 | 99680 | 115607
7 | 25:41.33 | 3:30.07 | 115608 | 131364
8 | 29:11.40 | 4:11.70 | 131365 | 150259
9 | 33:23.35 | 4:32.43 | 150260 | 170702
10 | 37:56.03 | 4:40.45 | 170703 | 191747
11 | 42:36.48 | 4:55.60 | 191748 | 213932
12 | 47:32.33 | 2:46.00 | 213933 | 226382
Характеристики диапазона извлечения и сообщения об ошибках
Выбранный диапазон
Имя файла G:\David Liebman - The Tree\Dave Liebman - The Tree.wav
Пиковый уровень 98.8 %
Качество диапазона 100.0 %
CRC копии DFCCA69E
Копирование... OK
Ошибок не произошло
Конец отчёта
Any questions -> support@pro-jazz.com. По всем вопросам пишите -> support@pro-jazz.com
13:17
137
Нет комментариев. Ваш будет первым!