Поиск

(Avant-Garde Jazz, Contemporary Jazz, Piano) [CD] Per Henrik Wallin Trio (Torbjorn Hultcrantz, Erik Dahlback) - Coyote - 1998, FLAC (tracks+.cue), lossless

(Avant-Garde Jazz, Contemporary Jazz, Piano) [CD] Per Henrik Wallin Trio (Torbjorn Hultcrantz, Erik Dahlback) - Coyote - 1998, FLAC (tracks+.cue), lossless
Per Henrik Wallin Trio / Coyote
Жанр: Avant-Garde Jazz, Contemporary Jazz
Носитель: CD
Страна-производитель диска (релиза): Sweden
Год издания: 1998
Издатель (лейбл): Dragon Records
Номер по каталогу: DRCD 320
Аудиокодек: FLAC (*.flac)
Тип рипа: tracks+.cue
Битрейт аудио: lossless
Продолжительность: 60:45
Источник (релизер): cd
Наличие сканов в содержимом раздачи: нет
Треклист:
1. Coyote 3:38
2. The Strange Adventures of JesperKlint 13:25
3. This Spring Is This 10:02
4. Mingelin 7-8 10:30
5. Mingelin 5 3:19
6. Västgötajazzen 15:12
7. Peterson-Berger? 4:35
 
Лог создания рипа
Exact Audio Copy V1.0 beta 3 from 29. August 2011
EAC extraction logfile from 4. April 2015, 19:22
Per Henrik Wallin Trio / Coyote
Used drive : ASUS DRW-24F1ST a Adapter: 0 ID: 0
Read mode : Secure
Utilize accurate stream : Yes
Defeat audio cache : Yes
Make use of C2 pointers : No
Read offset correction : 6
Overread into Lead-In and Lead-Out : No
Fill up missing offset samples with silence : Yes
Delete leading and trailing silent blocks : No
Null samples used in CRC calculations : Yes
Used interface : Native Win32 interface for Win NT & 2000
Gap handling : Appended to previous track
Used output format : User Defined Encoder
Selected bitrate : 320 kBit/s
Quality : High
Add ID3 tag : No
Command line compressor : D:\Programs\Exact Audio Copy\Flac\flac.exe
Additional command line options : -V -8 -T "Genre=%genre%" -T "Artist=%artist%" -T "Title=%title%" -T "Album=%albumtitle%" -T "Date=%year%" -T "Tracknumber=%tracknr%" -T "Comment=%comment%" %source%
TOC of the extracted CD
Track | Start | Length | Start sector | End sector
---------------------------------------------------------
1 | 0:00.00 | 3:38.57 | 0 | 16406
2 | 3:38.57 | 13:25.60 | 16407 | 76841
3 | 17:04.42 | 10:02.70 | 76842 | 122061
4 | 27:07.37 | 10:30.30 | 122062 | 169341
5 | 37:37.67 | 3:19.15 | 169342 | 184281
6 | 40:57.07 | 15:12.65 | 184282 | 252746
7 | 56:09.72 | 4:35.18 | 252747 | 273389
Track 1
Filename D:\EAC\01 Coyote.wav
Pre-gap length 0:00:02.00
Peak level 100.0 %
Extraction speed 2.9 X
Track quality 99.9 %
Test CRC EEBE1F20
Copy CRC EEBE1F20
Copy OK
Track 2
Filename D:\EAC\02 The strange adventures of Jesper Klint.wav
Peak level 100.0 %
Extraction speed 4.5 X
Track quality 100.0 %
Test CRC DCEDCEB0
Copy CRC DCEDCEB0
Copy OK
Track 3
Filename D:\EAC\03 This spring is this.wav
Peak level 100.0 %
Extraction speed 5.0 X
Track quality 99.9 %
Test CRC 9FEAE3DF
Copy CRC 9FEAE3DF
Copy OK
Track 4
Filename D:\EAC\04 Mingelin 7-8.wav
Peak level 100.0 %
Extraction speed 5.9 X
Track quality 100.0 %
Test CRC 50608047
Copy CRC 50608047
Copy OK
Track 5
Filename D:\EAC\05 Mingelin 5.wav
Peak level 89.6 %
Extraction speed 4.9 X
Track quality 99.9 %
Test CRC 8F4C8CAE
Copy CRC 8F4C8CAE
Copy OK
Track 6
Filename D:\EAC\06 Vastgotajazzen.wav
Peak level 100.0 %
Extraction speed 6.9 X
Track quality 100.0 %
Test CRC 8405FDBA
Copy CRC 8405FDBA
Copy OK
Track 7
Filename D:\EAC\07 Peterson-Berger.wav
Peak level 82.7 %
Extraction speed 6.0 X
Track quality 99.9 %
Test CRC D31FFB1E
Copy CRC D31FFB1E
Copy OK
No errors occurred
End of status report
==== Log checksum ED3DF06F5E2DCE00272AA1DA7E731382D954A3F3F7F2063BA1EC888F8AB876AF ====
 
Содержание индексной карты (.CUE)
REM GENRE Jazz
REM DATE 1998
REM DISCID 550E3D07
REM COMMENT "ExactAudioCopy v1.0b3"
CATALOG 0000000000000
PERFORMER "Per Henrik Wallin Trio"
TITLE "Coyote"
FILE "01 Coyote.wav" WAVE
TRACK 01 AUDIO
TITLE "Coyote"
PERFORMER "Per Henrik Wallin Trio"
ISRC SEPUC9817010
INDEX 01 00:00:00
FILE "02 The strange adventures of Jesper Klint.wav" WAVE
TRACK 02 AUDIO
TITLE "The strange adventures of Jesper Klint"
PERFORMER "Per Henrik Wallin Trio"
ISRC SEPUC9817020
INDEX 01 00:00:00
FILE "03 This spring is this.wav" WAVE
TRACK 03 AUDIO
TITLE "This spring is this"
PERFORMER "Per Henrik Wallin Trio"
ISRC SEPUC9817020
INDEX 01 00:00:00
FILE "04 Mingelin 7-8.wav" WAVE
TRACK 04 AUDIO
TITLE "Mingelin 7-8"
PERFORMER "Per Henrik Wallin Trio"
ISRC SEPUC9817040
INDEX 01 00:00:00
FILE "05 Mingelin 5.wav" WAVE
TRACK 05 AUDIO
TITLE "Mingelin 5"
PERFORMER "Per Henrik Wallin Trio"
ISRC SEPUC9817050
INDEX 01 00:00:00
FILE "06 Vastgotajazzen.wav" WAVE
TRACK 06 AUDIO
TITLE "Vastgotajazzen"
PERFORMER "Per Henrik Wallin Trio"
ISRC SEPUC9817060
INDEX 01 00:00:00
FILE "07 Peterson-Berger.wav" WAVE
TRACK 07 AUDIO
TITLE "Peterson-Berger"
PERFORMER "Per Henrik Wallin Trio"
ISRC SEPUC9817070
INDEX 01 00:00:00
Доп. информация: Recorded August 15, 1986 (2, 3, 6) and October 12, 1987
 
Об исполнителе (группе)
Per Henrik Wallin (July 17, 1946; June 15, 2005) was a Swedish jazz pianist and composer. He was acclaimed in Continental Europe, but relatively obscure in the United States. He received the Swedish variant of the Golden Django two years before his death.
 
Состав
Erik Dahlback Drums
Torbjorn Hultcrantz Bass
Per Henrik Wallin Composer, Piano
10:44
372
Нет комментариев. Ваш будет первым!