Вы используете незарегистрированную версию компонента "Вкладки"!

Поиск

(Avant-Garde Jazz, Contemporary Jazz) Jeff Gauthier - Internal Memo - 1994, FLAC (tracks+.cue), lossless

(Avant-Garde Jazz, Contemporary Jazz) Jeff Gauthier - Internal Memo - 1994, FLAC (tracks+.cue), lossless
Треклист:
Jeff Gauthier / Internal Memo
Жанр: Avant-Garde Jazz, Contemporary Jazz
Страна-производитель диска: US
Год издания: 1994
Издатель (лейбл): 9 Winds
Номер по каталогу: NWCD 0164
Страна: US
Аудиокодек: FLAC (*.flac)
Тип рипа: tracks+.cue
Битрейт аудио: lossless
Продолжительность: 59:57
Источник (релизер): свой фирменный диск
Наличие сканов в содержимом раздачи: нет
Треклист:
1 Astor 8:32
2 Toon For Roon 6:40
3 Shandni's Revenge 7:23
4 Letter Without Words 6:26
5 Seriously Twisted Blues 7:30
6 Refuge 7:56
7 Olivier's Nightmare 15:10
 
Лог создания рипа
Exact Audio Copy V1.0 beta 3 from 29. August 2011
EAC extraction logfile from 4. January 2013, 20:15
Jeff Gauthier / Internal Memo
Used drive : PIONEER DVD-RW DVR-115D Adapter: 0 ID: 0
Read mode : Secure
Utilize accurate stream : Yes
Defeat audio cache : Yes
Make use of C2 pointers : No
Read offset correction : 48
Overread into Lead-In and Lead-Out : No
Fill up missing offset samples with silence : Yes
Delete leading and trailing silent blocks : No
Null samples used in CRC calculations : Yes
Used interface : Installed external ASPI interface
Gap handling : Appended to previous track
Used output format : User Defined Encoder
Selected bitrate : 896 kBit/s
Quality : High
Add ID3 tag : No
Command line compressor : C:\Program Files\Exact Audio Copy\FLAC\FLAC.EXE
Additional command line options : -6 -V -T "ARTIST=%artist%" -T "TITLE=%title%" -T "ALBUM=%albumtitle%" -T "DATE=%year%" -T "TRACKNUMBER=%tracknr%" -T "GENRE=%genre%" -T "COMMENT=%comment%" -T "BAND=%albuminterpret%" -T "COMPOSER=%composer%" %haslyrics%--tag-from-file=LYRICS="%lyricsfile%"%haslyrics% -T "DISCNUMBER=%cdnumber%" -T "TOTALDISCS=%totalcds%" -T "TOTALTRACKS=%numtracks%" %hascover%--picture="%coverfile%"%hascover% %source% -o %dest%
TOC of the extracted CD
Track | Start | Length | Start sector | End sector
---------------------------------------------------------
1 | 0:00.00 | 8:36.32 | 0 | 38731
2 | 8:36.32 | 6:42.23 | 38732 | 68904
3 | 15:18.55 | 7:27.40 | 68905 | 102469
4 | 22:46.20 | 6:28.20 | 102470 | 131589
5 | 29:14.40 | 7:33.00 | 131590 | 165564
6 | 36:47.40 | 7:59.67 | 165565 | 201556
7 | 44:47.32 | 15:10.25 | 201557 | 269831
Track 1
Filename D:\zzz\01 - Astor.wav
Pre-gap length 0:00:02.00
Peak level 81.7 %
Extraction speed 5.0 X
Track quality 100.0 %
Test CRC 27037B20
Copy CRC 27037B20
Accurately ripped (confidence 2) [898636B2] (AR v1)
Copy OK
Track 2
Filename D:\zzz\02 - Toon for Roon.wav
Pre-gap length 0:00:03.43
Peak level 99.0 %
Extraction speed 5.7 X
Track quality 100.0 %
Test CRC E7895E72
Copy CRC E7895E72
Accurately ripped (confidence 2) [C5672553] (AR v1)
Copy OK
Track 3
Filename D:\zzz\03 - Shandni's Revenge.wav
Pre-gap length 0:00:01.33
Peak level 100.0 %
Extraction speed 5.9 X
Track quality 99.9 %
Test CRC E6116945
Copy CRC E6116945
Accurately ripped (confidence 2) [893A6693] (AR v1)
Copy OK
Track 4
Filename D:\zzz\04 - Letter Without Words.wav
Pre-gap length 0:00:04.18
Peak level 65.6 %
Extraction speed 6.8 X
Track quality 100.0 %
Test CRC CE554683
Copy CRC CE554683
Accurately ripped (confidence 2) [DCF3D975] (AR v1)
Copy OK
Track 5
Filename D:\zzz\05 - Seriously Twisted Blues.wav
Pre-gap length 0:00:01.08
Peak level 100.0 %
Extraction speed 7.4 X
Track quality 100.0 %
Test CRC 182267B8
Copy CRC 182267B8
Accurately ripped (confidence 2) [3F8B9B96] (AR v1)
Copy OK
Track 6
Filename D:\zzz\06 - Refuge.wav
Pre-gap length 0:00:02.20
Peak level 98.8 %
Extraction speed 7.8 X
Track quality 100.0 %
Test CRC 82B7BF06
Copy CRC 82B7BF06
Accurately ripped (confidence 2) [CFC9441B] (AR v1)
Copy OK
Track 7
Filename D:\zzz\07 - Oliver's Nightmare.wav
Pre-gap length 0:00:02.60
Peak level 99.0 %
Extraction speed 8.5 X
Track quality 99.9 %
Test CRC 8F8CF75E
Copy CRC 8F8CF75E
Accurately ripped (confidence 2) [9E4819C3] (AR v1)
Copy OK
All tracks accurately ripped
No errors occurred
End of status report
==== Log checksum E38705ED20892C0CA5F9937227342F3F537812394C14AE115C8D28E4F48CAD7A ====
 
Содержание индексной карты (.CUE)
REM GENRE Jazz
REM DATE 1994
REM DISCID 660E0D07
REM COMMENT "ExactAudioCopy v1.0b3"
PERFORMER "Jeff Gauthier"
TITLE "Internal Memo"
FILE "01 - Astor.wav" WAVE
TRACK 01 AUDIO
TITLE "Astor"
PERFORMER "Jeff Gauthier"
INDEX 01 00:00:00
TRACK 02 AUDIO
TITLE "Toon for Roon"
PERFORMER "Jeff Gauthier"
INDEX 00 08:32:64
FILE "02 - Toon for Roon.wav" WAVE
INDEX 01 00:00:00
TRACK 03 AUDIO
TITLE "Shandni's Revenge"
PERFORMER "Jeff Gauthier"
INDEX 00 06:40:65
FILE "03 - Shandni's Revenge.wav" WAVE
INDEX 01 00:00:00
TRACK 04 AUDIO
TITLE "Letter Without Words"
PERFORMER "Jeff Gauthier"
INDEX 00 07:23:22
FILE "04 - Letter Without Words.wav" WAVE
INDEX 01 00:00:00
TRACK 05 AUDIO
TITLE "Seriously Twisted Blues"
PERFORMER "Jeff Gauthier"
INDEX 00 06:27:12
FILE "05 - Seriously Twisted Blues.wav" WAVE
INDEX 01 00:00:00
TRACK 06 AUDIO
TITLE "Refuge"
PERFORMER "Jeff Gauthier"
INDEX 00 07:30:55
FILE "06 - Refuge.wav" WAVE
INDEX 01 00:00:00
TRACK 07 AUDIO
TITLE "Oliver's Nightmare"
PERFORMER "Jeff Gauthier"
INDEX 00 07:57:07
FILE "07 - Oliver's Nightmare.wav" WAVE
INDEX 01 00:00:00
 
Лог проверки качества
d:\>d:\aucdtect -d/-m0 d:\zzz\*.wav
auCDtect: CD records authenticity detector, version 0.8.2
Copyright (c) 2004 Oleg Berngardt. All rights reserved.
Copyright (c) 2004 Alexander Djourik. All rights reserved.
------------------------------------------------------------
Processing file: [01. Astor.wav]
------------------------------------------------------------
This track looks like CDDA with probability 43%
------------------------------------------------------------
Processing file: [02. Toon for Roon.wav]
------------------------------------------------------------
This track looks like CDDA with probability 58%
------------------------------------------------------------
Processing file: [03. Shandni's Revenge.wav]
------------------------------------------------------------
This track looks like CDDA with probability 100%
------------------------------------------------------------
Processing file: [04. Letter Without Words.wav]
------------------------------------------------------------
This track looks like CDDA with probability 42%
------------------------------------------------------------
Processing file: [05. Seriously Twisted Blues.wav]
------------------------------------------------------------
This track looks like CDDA with probability 94%
------------------------------------------------------------
Processing file: [06. Refuge.wav]
------------------------------------------------------------
This track looks like CDDA with probability 49%
------------------------------------------------------------
Processing file: [07. Oliver's Nightmare.wav]
------------------------------------------------------------
This track looks like CDDA with probability 76%
------------------------------------------------------------
Final Conclusion:
------------------------------------------------------------
These tracks looks like CDDA with probability 100%
Доп. информация:
 
Album Info
Produced by Nels Cline & Jeff Gauthier
Executive producer: Vinny Golia
Recorded at Studio Ultimo, LA, CA September 4 & 5, 1993.
 
Состав
Double Bass, Harmonica [Chromatic] – Eric Von Essen
Drums, Percussion – Alex Cline
Piano, Synthesizer – David Witham
Violin – Jeff Gauthier
Strings on 1.: violin: Jeff Gauthier, Peter Kent, Roger Wilkie
viola: Kirstin Fife, Karie Prescott
cello: Stefanie Fife
Any questions -> support@pro-jazz.com. По всем вопросам пишите -> support@pro-jazz.com
07:18
123
Нет комментариев. Ваш будет первым!