Вы используете незарегистрированную версию компонента "Вкладки"!

Поиск

(Avant-Garde Jazz, Contemporary Jazz) [CD] The John Cameron Quartet - Off Centre - 1969 (2005), FLAC (tracks+.cue), lossless

(Avant-Garde Jazz, Contemporary Jazz) [CD] The John Cameron Quartet - Off Centre - 1969 (2005), FLAC (tracks+.cue), lossless
Треклист:
The John Cameron Quartet - Off Centre
Жанр: Avant-Garde Jazz, Contemporary Jazz
Носитель: CD
Страна-производитель диска (релиза): Великобритания
Год издания: 1969 (2005)
Издатель (лейбл): Vocalion
Номер по каталогу: CDSML 8409
Аудиокодек: FLAC (*.flac)
Тип рипа: tracks+.cue
Битрейт аудио: lossless
Продолжительность: 40:33
Источник (релизер): wikieup (what)
Наличие сканов в содержимом раздачи: нет
Треклист:
01. Off Centre (Cameron) - 9:08
02. Go Away, Come Back Another Day (Cameron) - 5:13
03. Dafina Querida (Cameron-Thompson) - 6:17
04. Omah Cheyenne (Cameron) - 7:14
05. Wenceslas Square (Cameron) - 3:16
06. Splat (Cameron) - 5:10
07. Troublemaker (Cameron) - 4:15
Состав:
John Cameron - piano
Harold McNair - flute, alto saxophone, tenor saxophone
Danny Thompson - bass
Tony Carr - drums, percussion
Recorded in London on January 17-18, 1969.
 
Лог создания рипа
Exact Audio Copy V1.0 beta 3 from 29. August 2011
EAC extraction logfile from 8. September 2014, 13:35
The John Cameron Quartet / Off Centre [2005 Reissue]
Used drive : TSSTcorpDVD-ROM TS-U333B Adapter: 0 ID: 1
Read mode : Secure
Utilize accurate stream : Yes
Defeat audio cache : Yes
Make use of C2 pointers : No
Read offset correction : 6
Overread into Lead-In and Lead-Out : No
Fill up missing offset samples with silence : Yes
Delete leading and trailing silent blocks : No
Null samples used in CRC calculations : Yes
Used interface : Native Win32 interface for Win NT & 2000
Gap handling : Appended to previous track
Used output format : User Defined Encoder
Selected bitrate : 1024 kBit/s
Quality : High
Add ID3 tag : No
Command line compressor : C:\Program Files\Exact Audio Copy\Flac\flac.exe
Additional command line options : -8 -V -T "ARTIST=%artist%" -T "TITLE=%title%" -T "ALBUM=%albumtitle%" -T "DATE=%year%" -T "TRACKNUMBER=%tracknr%" -T "GENRE=%genre%" -T "PERFORMER=%albuminterpret%" -T "COMPOSER=%composer%" %haslyrics%--tag-from-file=LYRICS="%lyricsfile%"%haslyrics% -T "ALBUMARTIST=%albumartist%" -T "DISCNUMBER=%cdnumber%" -T "TOTALDISCS=%totalcds%" -T "TOTALTRACKS=%numtracks%" -T "COMMENT=%comment%" %source% -o %dest%
TOC of the extracted CD
Track | Start | Length | Start sector | End sector
---------------------------------------------------------
1 | 0:01.00 | 9:07.53 | 75 | 41152
2 | 9:08.53 | 5:13.06 | 41153 | 64633
3 | 14:21.59 | 6:16.51 | 64634 | 92884
4 | 20:38.35 | 7:14.31 | 92885 | 125465
5 | 27:52.66 | 3:15.48 | 125466 | 140138
6 | 31:08.39 | 5:09.50 | 140139 | 163363
7 | 36:18.14 | 4:14.61 | 163364 | 182474
Track 1
Filename C:\EAC Rips\01 - Off Centre.wav
Pre-gap length 0:00:03.00
Peak level 70.4 %
Extraction speed 3.0 X
Track quality 100.0 %
Test CRC 4FD78C57
Copy CRC 4FD78C57
Accurately ripped (confidence 1) [99966390] (AR v1)
Copy OK
Track 2
Filename C:\EAC Rips\02 - Go Away, Come Back Another Day.wav
Pre-gap length 0:00:02.08
Peak level 60.9 %
Extraction speed 2.8 X
Track quality 99.9 %
Test CRC 6C7E0F25
Copy CRC 6C7E0F25
Accurately ripped (confidence 1) [30B1EEEB] (AR v1)
Copy OK
Track 3
Filename C:\EAC Rips\03 - Dafina Querida.wav
Pre-gap length 0:00:02.14
Peak level 60.7 %
Extraction speed 3.7 X
Track quality 100.0 %
Test CRC 426B29D4
Copy CRC 426B29D4
Accurately ripped (confidence 1) [F5D53DB0] (AR v1)
Copy OK
Track 4
Filename C:\EAC Rips\04 - Omah Cheyenne.wav
Pre-gap length 0:00:01.93
Peak level 53.4 %
Extraction speed 4.0 X
Track quality 100.0 %
Test CRC AE059BF0
Copy CRC AE059BF0
Accurately ripped (confidence 1) [6D005112] (AR v1)
Copy OK
Track 5
Filename C:\EAC Rips\05 - Wenceslas Square.wav
Pre-gap length 0:00:01.90
Peak level 56.6 %
Extraction speed 3.9 X
Track quality 100.0 %
Test CRC C1C11240
Copy CRC C1C11240
Accurately ripped (confidence 1) [11125ABE] (AR v1)
Copy OK
Track 6
Filename C:\EAC Rips\06 - Splat.wav
Pre-gap length 0:00:02.64
Peak level 58.4 %
Extraction speed 4.3 X
Track quality 100.0 %
Test CRC 88E74DB7
Copy CRC 88E74DB7
Accurately ripped (confidence 1) [4665F1D4] (AR v1)
Copy OK
Track 7
Filename C:\EAC Rips\07 - Troublemaker.wav
Pre-gap length 0:00:02.16
Peak level 68.6 %
Extraction speed 4.4 X
Track quality 100.0 %
Test CRC B081FB89
Copy CRC B081FB89
Accurately ripped (confidence 1) [B3A9D9CC] (AR v1)
Copy OK
All tracks accurately ripped
No errors occurred
End of status report
==== Log checksum 4635AEAACD59CCA522CF9A5F29B6F085053044A5F740216F0C3BB0B17EAEFD38 ====
 
Содержание индексной карты (.CUE)
REM GENRE Jazz
REM DATE 1969
REM DISCID 52098007
REM COMMENT "ExactAudioCopy v1.0b3"
PERFORMER "John Cameron"
TITLE "Off Centre"
FILE "01 - Off Centre.wav" WAVE
TRACK 01 AUDIO
TITLE "Off Centre"
PERFORMER "John Cameron"
PREGAP 00:01:00
INDEX 01 00:00:00
TRACK 02 AUDIO
TITLE "Go Away, Come Back Another Day"
PERFORMER "John Cameron"
INDEX 00 09:05:47
FILE "02 - Go Away, Come Back Another Day.wav" WAVE
INDEX 01 00:00:00
TRACK 03 AUDIO
TITLE "Dafina Querida"
PERFORMER "John Cameron"
INDEX 00 05:10:70
FILE "03 - Dafina Querida.wav" WAVE
INDEX 01 00:00:00
TRACK 04 AUDIO
TITLE "Omah Cheyenne"
PERFORMER "John Cameron"
INDEX 00 06:14:56
FILE "04 - Omah Cheyenne.wav" WAVE
INDEX 01 00:00:00
TRACK 05 AUDIO
TITLE "Wenceslas Square"
PERFORMER "John Cameron"
INDEX 00 07:12:38
FILE "05 - Wenceslas Square.wav" WAVE
INDEX 01 00:00:00
TRACK 06 AUDIO
TITLE "Splat"
PERFORMER "John Cameron"
INDEX 00 03:13:00
FILE "06 - Splat.wav" WAVE
INDEX 01 00:00:00
TRACK 07 AUDIO
TITLE "Troublemaker"
PERFORMER "John Cameron"
INDEX 00 05:07:38
FILE "07 - Troublemaker.wav" WAVE
INDEX 01 00:00:00
 
Отчет CUETools
[CUETools log; Date: 01.09.2015 0:57:44; Version: 2.1.5]
Pregap length 00:01:00.
[CTDB TOCID: Zhxs112l8tUUIMNDtew.nMXTyQU-] found.
Track | CTDB Status
1 | (1/1) Accurately ripped
2 | (1/1) Accurately ripped
3 | (1/1) Accurately ripped
4 | (1/1) Accurately ripped
5 | (1/1) Accurately ripped
6 | (1/1) Accurately ripped
7 | (1/1) Accurately ripped
[AccurateRip ID: 000c5ccf-004802e7-52098007] found.
Track [ CRC | V2 ] Status
01 [99966390|4f67791f] (1+1/2) Accurately ripped
02 [30b1eeeb|3586ccbc] (1+1/2) Accurately ripped
03 [f5d53db0|f9850393] (1+1/2) Accurately ripped
04 [6d005112|e9e3a250] (1+1/2) Accurately ripped
05 [11125abe|0c7cd9da] (1+1/2) Accurately ripped
06 [4665f1d4|87f7640c] (1+1/2) Accurately ripped
07 [b3a9d9cc|a8b3a955] (1+1/2) Accurately ripped
Track Peak [ CRC32 ] [W/O NULL] [ LOG ]
-- 70,4 [867753F5] [33748641]
01 70,4 [4FD78C57] [91F17D0C] CRC32
02 60,9 [6C7E0F25] [4F9CBDD0] CRC32
03 60,7 [426B29D4] [E3089021] CRC32
04 53,4 [AE059BF0] [BA7D7F6C] CRC32
05 56,6 [C1C11240] [9AC13CF6] CRC32
06 58,4 [88E74DB7] [2B5BBE97] CRC32
07 68,6 [B081FB89] [BB8683EE] CRC32
 
Об альбоме (сборнике)
Many years ago while still a teenager, I picked up a cheap LP called 'Wowie Zowie - The World of Progressive Music'. It was a compilation of artists signed to the Decca label, including very early Genesis, Moody Blues of 'Days of Future Passed' vintage and other early progressive rock artists. However, in the midst of the electric sounds out popped a track called 'Go Away, Come Back Another Day'. This was an acoustic jazz recording - drums, bass, piano and flute - by The John Cameron Quartet.
I loved this cut. It's a beautifully contemplative and relaxed recording that, for me, evokes English city parks on an autumnal Sunday afternoon. Mellow and a little sad.
At that time, I was listening almost entirely to rock music. 'Go Away, Come Back Another Day' showed me another music, and was largely responsible for my future exploration and love of jazz in all its forms.
Over the past decades, I occasionally looked to see if the record that cut came from was available. I'd missed its first release, foolishly. Then I finally found this CD. I was not sure what I was going to get - how many albums do we all own that only have one or two good songs? But this was not be. True, no other cut on 'Off Centre' is like 'Go Away, Come Back Another Day', but the remaining performances are all excellent. The great bass player Danny Thompson whom I know mostly from English folk-rock gives full rein to his jazz inclinations here. Harold McNair plays typically excellent sax and flute and John Cameron reveals himself to be a very fine jazz pianist. The result is prime melodic and inventive 1960s acoustic jazz. I am very glad I finally picked this up, forty years too late. But better late than never.
-- musickna
По всем вопросам пишите личное сообщение пользователю M0p94ok.
15:25
146
Нет комментариев. Ваш будет первым!