Вы используете незарегистрированную версию компонента "Вкладки"!

Поиск

(Avant-Garde Jazz, Contemporary Jazz) [CD] Ronald Shannon Jackson And The Decoding Society (Eric Person, Zane Massey, John Moody, Cary Denigris, Masujaa) - When Colors Play - 1999, FLAC (tracks+.cue), lossless

(Avant-Garde Jazz, Contemporary Jazz) [CD] Ronald Shannon Jackson And The Decoding Society (Eric Person, Zane Massey, John Moody, Cary Denigris, Masujaa) - When Colors Play - 1999, FLAC (tracks+.cue), lossless
Треклист:
Ronald Shannon Jackson And The Decoding Society / When Colors Play
Жанр: Avant-Garde Jazz, Contemporary Jazz
Носитель: CD
Страна-производитель диска (релиза): US
Год издания: 1999
Издатель (лейбл): Knit Classics
Номер по каталогу: KCR-3027
Аудиокодек: FLAC (*.flac)
Тип рипа: tracks+.cue
Битрейт аудио: lossless
Продолжительность: 55:17
Источник (релизер): cd
Наличие сканов в содержимом раздачи: нет
Треклист:
1. Dance Of The Spirit Catcher 8:02
2. Ella Mae 3:56
3. When Colors Play 6:48
4. Black Blues 6:38
5. Sweet Orange 11:06
6. Green Coronas 5:52
7. Purple Tongues 12:37
 
Лог создания рипа
Exact Audio Copy V1.0 beta 3 from 29. August 2011
EAC extraction logfile from 27. August 2015, 17:56
Ronald Shannon Jackson And The Decoding Society / When Colors Play
Used drive : ASUS DRW-24F1ST a Adapter: 0 ID: 0
Read mode : Secure
Utilize accurate stream : Yes
Defeat audio cache : Yes
Make use of C2 pointers : No
Read offset correction : 6
Overread into Lead-In and Lead-Out : No
Fill up missing offset samples with silence : Yes
Delete leading and trailing silent blocks : No
Null samples used in CRC calculations : Yes
Used interface : Native Win32 interface for Win NT & 2000
Gap handling : Appended to previous track
Used output format : User Defined Encoder
Selected bitrate : 320 kBit/s
Quality : High
Add ID3 tag : No
Command line compressor : D:\Programs\Exact Audio Copy\Flac\flac.exe
Additional command line options : -V -8 -T "Genre=%genre%" -T "Artist=%artist%" -T "Title=%title%" -T "Album=%albumtitle%" -T "Date=%year%" -T "Tracknumber=%tracknr%" -T "Comment=%comment%" %source%
TOC of the extracted CD
Track | Start | Length | Start sector | End sector
---------------------------------------------------------
1 | 0:00.00 | 8:05.56 | 0 | 36430
2 | 8:05.56 | 3:58.57 | 36431 | 54337
3 | 12:04.38 | 6:51.51 | 54338 | 85213
4 | 18:56.14 | 6:40.10 | 85214 | 115223
5 | 25:36.24 | 11:09.21 | 115224 | 165419
6 | 36:45.45 | 5:54.12 | 165420 | 191981
7 | 42:39.57 | 12:37.68 | 191982 | 248824
Track 1
Filename D:\EAC\01 Dance Of The Spirit Catcher.wav
Pre-gap length 0:00:02.00
Peak level 96.4 %
Extraction speed 4.9 X
Track quality 100.0 %
Test CRC 396C130B
Copy CRC 396C130B
Accurately ripped (confidence 2) [DDAB60D6] (AR v2)
Copy OK
Track 2
Filename D:\EAC\02 Ella Mae.wav
Pre-gap length 0:00:02.00
Peak level 96.2 %
Extraction speed 5.2 X
Track quality 100.0 %
Test CRC 30669223
Copy CRC 30669223
Accurately ripped (confidence 2) [8257EB79] (AR v2)
Copy OK
Track 3
Filename D:\EAC\03 When Colors Play.wav
Pre-gap length 0:00:01.00
Peak level 98.9 %
Extraction speed 5.7 X
Track quality 99.9 %
Test CRC 99E73EFB
Copy CRC 99E73EFB
Accurately ripped (confidence 2) [380ECB1B] (AR v2)
Copy OK
Track 4
Filename D:\EAC\04 Black Blues.wav
Pre-gap length 0:00:02.00
Peak level 95.4 %
Extraction speed 6.7 X
Track quality 100.0 %
Test CRC 2425C13E
Copy CRC 2425C13E
Accurately ripped (confidence 2) [56B708BB] (AR v2)
Copy OK
Track 5
Filename D:\EAC\05 Sweet Orange.wav
Pre-gap length 0:00:01.00
Peak level 96.7 %
Extraction speed 7.3 X
Track quality 99.9 %
Test CRC 6A7690AE
Copy CRC 6A7690AE
Accurately ripped (confidence 2) [BA912F15] (AR v2)
Copy OK
Track 6
Filename D:\EAC\06 Green Coronas.wav
Pre-gap length 0:00:02.00
Peak level 95.1 %
Extraction speed 7.8 X
Track quality 100.0 %
Test CRC 87F8C046
Copy CRC 87F8C046
Accurately ripped (confidence 2) [09DCEDF4] (AR v2)
Copy OK
Track 7
Filename D:\EAC\07 Purple Tongues.wav
Pre-gap length 0:00:01.00
Peak level 96.4 %
Extraction speed 8.9 X
Track quality 100.0 %
Test CRC 9990BCBA
Copy CRC 9990BCBA
Accurately ripped (confidence 2) [BBEA4C1F] (AR v2)
Copy OK
All tracks accurately ripped
No errors occurred
End of status report
==== Log checksum E6CF3C2C64190177F12355C84476BCEE0EDEA9DAB005E322B9DE25C3207EB360 ====
 
Содержание индексной карты (.CUE)
REM GENRE Jazz
REM DATE 1999
REM DISCID 5B0CF507
REM COMMENT "ExactAudioCopy v1.0b3"
PERFORMER "Ronald Shannon Jackson And The Decoding Society"
TITLE "When Colors Play"
FILE "01 Dance Of The Spirit Catcher.wav" WAVE
TRACK 01 AUDIO
TITLE "Dance Of The Spirit Catcher"
PERFORMER "Ronald Shannon Jackson And The Decoding Society"
INDEX 01 00:00:00
TRACK 02 AUDIO
TITLE "Ella Mae"
PERFORMER "Ronald Shannon Jackson And The Decoding Society"
INDEX 00 08:03:56
FILE "02 Ella Mae.wav" WAVE
INDEX 01 00:00:00
TRACK 03 AUDIO
TITLE "When Colors Play"
PERFORMER "Ronald Shannon Jackson And The Decoding Society"
INDEX 00 03:57:57
FILE "03 When Colors Play.wav" WAVE
INDEX 01 00:00:00
TRACK 04 AUDIO
TITLE "Black Blues"
PERFORMER "Ronald Shannon Jackson And The Decoding Society"
INDEX 00 06:49:51
FILE "04 Black Blues.wav" WAVE
INDEX 01 00:00:00
TRACK 05 AUDIO
TITLE "Sweet Orange"
PERFORMER "Ronald Shannon Jackson And The Decoding Society"
INDEX 00 06:39:10
FILE "05 Sweet Orange.wav" WAVE
INDEX 01 00:00:00
TRACK 06 AUDIO
TITLE "Green Coronas"
PERFORMER "Ronald Shannon Jackson And The Decoding Society"
INDEX 00 11:07:21
FILE "06 Green Coronas.wav" WAVE
INDEX 01 00:00:00
TRACK 07 AUDIO
TITLE "Purple Tongues"
PERFORMER "Ronald Shannon Jackson And The Decoding Society"
INDEX 00 05:53:12
FILE "07 Purple Tongues.wav" WAVE
INDEX 01 00:00:00
Доп. информация: Recorded live at the Caravan Of Dreams, Forth Worth, Texas, on September 12 & 13, 1986.
 
Об альбоме (сборнике)
Prior to Knit Classics’ recent reissue deluge all of Ronald Shannon Jackson’s recordings as a leader were out of print. This may not seem like much of travesty to those unfamiliar with Jackson’s catalog but when you consider that he had over a dozen albums to his credit the reality of the rate of attrition begins to sink in. Fortunately for everyone involved the Knitting Factory’s new reissue imprint has chosen Jackson (along with Rashied Ali) as one of the hubs of it’s new wave of releases. Brought back into circulation are a host of Jackson’s sessions including this live set recorded at the Caravan of Dreams.
The Decoding Society was Jackson’s working group during the 1980s and it had a somewhat revolving lineup based both on the schedules of the players and the ever-present specter of economics. The roster on display here is particularly strong and features the solid horn pairing of Zane Massey and Eric Person prominently alongside the tandem guitar thrust of Masujaa and Denigris. As the instrumentation might tip-off this group dips heavily into a Fusion bag, but other dominant elements spring forth from African and High Life influences that Jackson absorbed during his travels across the Continent. “Dance of the Spirit Catcher” gathers the troop in a heavily amplified formation flanked by the shimmering guitars of Dengris and Masujaa. The blinding fretwork of both players together and separately provides the center on most of the tracks, but Jackson’s industrious drums and the horns also supply strong solos. There’s a heady urban flavor with a pinch of funk that informs many of the pieces too that mixes surprisingly well with the more bucolic elements of the leader’s arrangements. Jackson’s percussive style was and is one of the most forceful in the business, as evidenced by his stints with such heavy-hitters as Cecil Taylor and Peter Brötzmann (in Last Exit), notably informed by Rock, but never a slave to it. Though the rhythms sometimes wallow in orthodoxy of presentation, as on the title track, the forward momentum of the music never falters. With releases like this one those who missed Jackson’s prolific run the first time around now have a golden opportunity to catch up to where he left off.
 
Состав
Alto Saxophone, Soprano Saxophone – Eric Person
Bass – John Moody
Drums, Composed By, Producer – Ronald Shannon Jackson
Guitar – Cary Denigris, Masujaa
Soprano Saxophone, Tenor Saxophone – Zane Massey
По всем вопросам пишите личное сообщение пользователю M0p94ok.
15:16
341
Нет комментариев. Ваш будет первым!