Вы используете незарегистрированную версию компонента "Вкладки"!

Поиск

(Avant-Garde Jazz, Contemporary Jazz) [CD] Multiphonics Tuba Trio ( Renato Geremia, Michel Godard, Tiziano Tononi) - Tre Cose - 1998, FLAC (tracks+.cue), lossless

(Avant-Garde Jazz, Contemporary Jazz) [CD] Multiphonics Tuba Trio ( Renato Geremia, Michel Godard, Tiziano Tononi) - Tre Cose - 1998, FLAC (tracks+.cue), lossless
Треклист:
Multiphonics Tuba Trio / Tre Cose
Жанр: Avant-Garde Jazz, Contemporary Jazz
Носитель: CD
Страна-производитель диска (релиза): Italy
Год издания: 1998
Издатель (лейбл): Splasc(H) Records
Номер по каталогу: CDH 635.2
Аудиокодек: FLAC (*.flac)
Тип рипа: tracks+.cue
Битрейт аудио: lossless
Продолжительность: 75:19
Источник (релизер): cd
Наличие сканов в содержимом раздачи: нет
Треклист:
1. Suite for Silvia 10:24
2. Four Times 9:15
3. Rocking' and Rollin' 8:28
4. Tre Cose 7:32
5. Ritratto Di U.B. 7:36
6. Tre Cose (Reprise) 1:31
7. Lulù Suite 4:50
8. Lulù Suite 7:56
9. Reel One 7:06
10. Augmentation 2:36
11. Ballata 8:00
 
Лог создания рипа
Exact Audio Copy V1.0 beta 3 from 29. August 2011
EAC extraction logfile from 16. November 2015, 16:02
Multiphonics Tuba Trio / Tre Cose
Used drive : ASUS DRW-24F1ST a Adapter: 0 ID: 0
Read mode : Secure
Utilize accurate stream : Yes
Defeat audio cache : Yes
Make use of C2 pointers : No
Read offset correction : 6
Overread into Lead-In and Lead-Out : No
Fill up missing offset samples with silence : Yes
Delete leading and trailing silent blocks : No
Null samples used in CRC calculations : Yes
Used interface : Native Win32 interface for Win NT & 2000
Gap handling : Appended to previous track
Used output format : User Defined Encoder
Selected bitrate : 320 kBit/s
Quality : High
Add ID3 tag : No
Command line compressor : D:\Programs\Exact Audio Copy\Flac\flac.exe
Additional command line options : -V -8 -T "Genre=%genre%" -T "Artist=%artist%" -T "Title=%title%" -T "Album=%albumtitle%" -T "Date=%year%" -T "Tracknumber=%tracknr%" -T "Comment=%comment%" %source%
TOC of the extracted CD
Track | Start | Length | Start sector | End sector
---------------------------------------------------------
1 | 0:00.00 | 10:24.42 | 0 | 46841
2 | 10:24.42 | 9:15.30 | 46842 | 88496
3 | 19:39.72 | 8:28.60 | 88497 | 126656
4 | 28:08.57 | 7:32.68 | 126657 | 160624
5 | 35:41.50 | 7:36.10 | 160625 | 194834
6 | 43:17.60 | 1:31.22 | 194835 | 201681
7 | 44:49.07 | 4:50.10 | 201682 | 223441
8 | 49:39.17 | 7:56.00 | 223442 | 259141
9 | 57:35.17 | 7:06.28 | 259142 | 291119
10 | 64:41.45 | 2:36.72 | 291120 | 302891
11 | 67:18.42 | 8:00.68 | 302892 | 338959
Track 1
Filename D:\EAC\01 Suite for Silvia.wav
Pre-gap length 0:00:02.00
Peak level 99.0 %
Extraction speed 5.7 X
Track quality 100.0 %
Test CRC 9A66620B
Copy CRC 9A66620B
Track not present in AccurateRip database
Copy OK
Track 2
Filename D:\EAC\02 Four Times.wav
Peak level 98.0 %
Extraction speed 6.4 X
Track quality 99.9 %
Test CRC E2DCC29C
Copy CRC E2DCC29C
Track not present in AccurateRip database
Copy OK
Track 3
Filename D:\EAC\03 Rockin' & Rollin'.wav
Peak level 99.0 %
Extraction speed 7.5 X
Track quality 100.0 %
Test CRC EFA97692
Copy CRC EFA97692
Track not present in AccurateRip database
Copy OK
Track 4
Filename D:\EAC\04 Tre Cose.wav
Peak level 99.0 %
Extraction speed 8.0 X
Track quality 100.0 %
Test CRC 10C6B8CF
Copy CRC 10C6B8CF
Track not present in AccurateRip database
Copy OK
Track 5
Filename D:\EAC\05 Ritratto di U.B..wav
Peak level 95.9 %
Extraction speed 7.9 X
Track quality 99.9 %
Test CRC 583C6B38
Copy CRC 583C6B38
Track not present in AccurateRip database
Copy OK
Track 6
Filename D:\EAC\06 Tre Cose (reprise).wav
Peak level 98.9 %
Extraction speed 5.1 X
Track quality 99.8 %
Test CRC D8150C14
Copy CRC D8150C14
Track not present in AccurateRip database
Copy OK
Track 7
Filename D:\EAC\07 Lulu (Lulu Suite).wav
Peak level 99.0 %
Extraction speed 7.7 X
Track quality 99.9 %
Test CRC F9B9D7BF
Copy CRC F9B9D7BF
Track not present in AccurateRip database
Copy OK
Track 8
Filename D:\EAC\08 Hasim (Lulu Suite).wav
Peak level 99.0 %
Extraction speed 9.4 X
Track quality 100.0 %
Test CRC 5139CDDB
Copy CRC 5139CDDB
Track not present in AccurateRip database
Copy OK
Track 9
Filename D:\EAC\09 Reel One (Lulu Suite).wav
Peak level 99.0 %
Extraction speed 9.7 X
Track quality 100.0 %
Test CRC 273A83CD
Copy CRC 273A83CD
Track not present in AccurateRip database
Copy OK
Track 10
Filename D:\EAC\10 Augmentation (Lulu Suite).wav
Peak level 99.0 %
Extraction speed 8.7 X
Track quality 100.0 %
Test CRC 8F7A1448
Copy CRC 8F7A1448
Track not present in AccurateRip database
Copy OK
Track 11
Filename D:\EAC\11 Ballata.wav
Peak level 99.0 %
Extraction speed 10.3 X
Track quality 100.0 %
Test CRC E6A5233F
Copy CRC E6A5233F
Track not present in AccurateRip database
Copy OK
None of the tracks are present in the AccurateRip database
No errors occurred
End of status report
==== Log checksum 195126053D8F1021F1C3CA3BA527634E6F73C62BE74DE17537CEFEC2ADBC5975 ====
 
Содержание индексной карты (.CUE)
REM GENRE Jazz
REM DATE 1998
REM DISCID A511A70B
REM COMMENT "ExactAudioCopy v1.0b3"
PERFORMER "Multiphonics Tuba Trio"
TITLE "Tre Cose"
FILE "01 Suite for Silvia.wav" WAVE
TRACK 01 AUDIO
TITLE "Suite for Silvia"
PERFORMER "Multiphonics Tuba Trio"
INDEX 01 00:00:00
FILE "02 Four Times.wav" WAVE
TRACK 02 AUDIO
TITLE "Four Times"
PERFORMER "Multiphonics Tuba Trio"
INDEX 01 00:00:00
FILE "03 Rockin' & Rollin'.wav" WAVE
TRACK 03 AUDIO
TITLE "Rockin' & Rollin'"
PERFORMER "Multiphonics Tuba Trio"
INDEX 01 00:00:00
FILE "04 Tre Cose.wav" WAVE
TRACK 04 AUDIO
TITLE "Tre Cose"
PERFORMER "Multiphonics Tuba Trio"
INDEX 01 00:00:00
FILE "05 Ritratto di U.B..wav" WAVE
TRACK 05 AUDIO
TITLE "Ritratto di U.B."
PERFORMER "Multiphonics Tuba Trio"
INDEX 01 00:00:00
FILE "06 Tre Cose (reprise).wav" WAVE
TRACK 06 AUDIO
TITLE "Tre Cose (reprise)"
PERFORMER "Multiphonics Tuba Trio"
INDEX 01 00:00:00
FILE "07 Lulu (Lulu Suite).wav" WAVE
TRACK 07 AUDIO
TITLE "Lulu (Lulu Suite)"
PERFORMER "Multiphonics Tuba Trio"
INDEX 01 00:00:00
FILE "08 Hasim (Lulu Suite).wav" WAVE
TRACK 08 AUDIO
TITLE "Hasim (Lulu Suite)"
PERFORMER "Multiphonics Tuba Trio"
INDEX 01 00:00:00
FILE "09 Reel One (Lulu Suite).wav" WAVE
TRACK 09 AUDIO
TITLE "Reel One (Lulu Suite)"
PERFORMER "Multiphonics Tuba Trio"
INDEX 01 00:00:00
FILE "10 Augmentation (Lulu Suite).wav" WAVE
TRACK 10 AUDIO
TITLE "Augmentation (Lulu Suite)"
PERFORMER "Multiphonics Tuba Trio"
INDEX 01 00:00:00
FILE "11 Ballata.wav" WAVE
TRACK 11 AUDIO
TITLE "Ballata"
PERFORMER "Multiphonics Tuba Trio"
INDEX 01 00:00:00
Доп. информация: Recorded & mixed at Luppi`s Studio, Milano, December 2 & 3, 1997 and January 9, 1998.
 
Об альбоме (сборнике)
A trio comprised of Italians Renato Geremia on reeds, flute, violin, and piano and Tiziano Tononi on percussion, plus French new music tuba player Michel Godard, this recording is an ongoing conversation between three very fine musicians. Calling themselves the Multiphonic Trio, the group plays a series of sketches from which the players launch their sometimes adventurous, often free-style improvisations. While the playing is first-rate, there is a sense of an ambitious project not fully realized. Geremia is amazingly versatile, as his solos on all instruments are uniformly inventive and technically advanced. Classically trained Godard continues to grow as a performer, and his soloing on tuba is virtuosic. Percussionist Tononi, a favorite on the Italian scene, is a sensitive performer, who listens carefully to timbre and sound. The highlight of the album is Tononi's "Lulu Suite," an impressionistic collection of four pieces displaying different styles and emotions.
 
Состав
Drums, Percussion, Gongs, Udu Drum – Tiziano Tononi
Piano, Violin, Flute, Clarinet, Alto Saxophone, Tenor Saxophone, Soprano Saxophone – Renato Geremia
Tuba, Serpent – Michel Godard
По всем вопросам пишите личное сообщение пользователю M0p94ok.
16:51
169
Нет комментариев. Ваш будет первым!