Вы используете незарегистрированную версию компонента "Вкладки"!

Поиск

(Avant-Garde Jazz, Contemporary Jazz) [CD] Dougie Bowne - 1994 - One Way Elevator (DIW-920, 1996, Japan), FLAC (image+.cue), lossless

(Avant-Garde Jazz, Contemporary Jazz) [CD] Dougie Bowne - 1994 - One Way Elevator (DIW-920, 1996, Japan), FLAC (image+.cue), lossless
Треклист:
Dougie Bowne / One Way Elevator
Жанр: Avant-Garde Jazz, Contemporary Jazz
Носитель: CD (Oversized Cardboard Sleeve)
Страна-производитель диска: Japan - этот CD был выпущен только в Японии.
Год издания: 1996
Издатель (лейбл): DIW
Номер по каталогу: DIW-920
Страна: U.S.A.
Аудиокодек: FLAC (*.flac)
Тип рипа: image+.cue
Битрейт аудио: lossless
Продолжительность: 42:08
Источник (релизер): Личный CD
Наличие сканов в содержимом раздачи: да
Треклист:
1. My Park Your Park - 4:37
2. One Way Elevator - 3:26
3. Transvestite - 1:29
4. Mortming - 4:16 (Не увеличивать громкость, когда тихо играет в начале трека - DR19 !!!)
5. Fat Lip - 3:00
6. Disallusioned - 2:27
7. Hammock - 1:02
8. I Saw The Whole Thing - 4:33
9. Haunted - 5:33
10. Cecil's Birthday - 0:34
11. Chance Meeting - 3:27
12. I Stumbled - 4:39
13. Hymn - 2:58
 
Лог создания рипа
Exact Audio Copy V1.0 beta 4 from 7. December 2014
EAC extraction logfile from 25. August 2015, 15:38
Dougie Bowne / One Way Elevator
Used drive : PLEXTOR CD-R PREMIUM2 Adapter: 1 ID: 1
Read mode : Secure
Utilize accurate stream : Yes
Defeat audio cache : Yes
Make use of C2 pointers : No
Read offset correction : 30
Overread into Lead-In and Lead-Out : Yes
Fill up missing offset samples with silence : Yes
Delete leading and trailing silent blocks : No
Null samples used in CRC calculations : Yes
Used interface : Native Win32 interface for Win NT & 2000
Used output format : Internal WAV Routines
Sample format : 44.100 Hz; 16 Bit; Stereo
TOC of the extracted CD
Track | Start | Length | Start sector | End sector
---------------------------------------------------------
1 | 0:00.00 | 4:37.32 | 0 | 20806
2 | 4:37.32 | 3:26.58 | 20807 | 36314
3 | 8:04.15 | 1:29.67 | 36315 | 43056
4 | 9:34.07 | 4:16.35 | 43057 | 62291
5 | 13:50.42 | 3:00.38 | 62292 | 75829
6 | 16:51.05 | 2:27.05 | 75830 | 86859
7 | 19:18.10 | 1:02.50 | 86860 | 91559
8 | 20:20.60 | 4:33.17 | 91560 | 112051
9 | 24:54.02 | 5:33.18 | 112052 | 137044
10 | 30:27.20 | 0:34.25 | 137045 | 139619
11 | 31:01.45 | 3:27.70 | 139620 | 155214
12 | 34:29.40 | 4:39.27 | 155215 | 176166
13 | 39:08.67 | 2:58.55 | 176167 | 189571
Range status and errors
Selected range
Filename C:\Torrents\Dougie Bowne - 1994 - One Way Elevator\Dougie Bowne - 1994 - One Way Elevator.wav
Peak level 96.7 %
Extraction speed 11.7 X
Range quality 100.0 %
Copy CRC CC79C65F
Copy OK
No errors occurred
AccurateRip summary
Track 1 accurately ripped (confidence 2) [8FC74A2B] (AR v2)
Track 2 accurately ripped (confidence 2) [4F59AD7F] (AR v2)
Track 3 accurately ripped (confidence 2) [937D8242] (AR v2)
Track 4 accurately ripped (confidence 2) [73343091] (AR v2)
Track 5 accurately ripped (confidence 2) [41840C69] (AR v2)
Track 6 accurately ripped (confidence 2) [2439B442] (AR v2)
Track 7 accurately ripped (confidence 2) [CC698138] (AR v2)
Track 8 accurately ripped (confidence 2) [A347FE54] (AR v2)
Track 9 accurately ripped (confidence 2) [A578F1AB] (AR v2)
Track 10 accurately ripped (confidence 2) [84C9BFD1] (AR v2)
Track 11 accurately ripped (confidence 2) [C3ECADCB] (AR v2)
Track 12 accurately ripped (confidence 2) [7EAB59CA] (AR v2)
Track 13 accurately ripped (confidence 2) [00F1DEE2] (AR v2)
All tracks accurately ripped
End of status report
---- CUETools DB Plugin V2.1.4
[CTDB TOCID: sxnbx75XKzzr1zynHRhuqCVG0jE-] found
Submit result: sxnbx75XKzzr1zynHRhuqCVG0jE- has been confirmed
Track | CTDB Status
1 | (2/2) Accurately ripped
2 | (2/2) Accurately ripped
3 | (2/2) Accurately ripped
4 | (2/2) Accurately ripped
5 | (2/2) Accurately ripped
6 | (2/2) Accurately ripped
7 | (2/2) Accurately ripped
8 | (2/2) Accurately ripped
9 | (2/2) Accurately ripped
10 | (2/2) Accurately ripped
11 | (2/2) Accurately ripped
12 | (2/2) Accurately ripped
13 | (2/2) Accurately ripped
==== Log checksum 39F3F97369DC4205D97EF7381F09A2C74961D1F60C3782363853C94A5C23F087 ====
 
Содержание индексной карты (.CUE)
REM DATE 1994
REM DISCID A709DF0D
REM COMMENT "ExactAudioCopy v1.0b4"
PERFORMER "Dougie Bowne"
TITLE "One Way Elevator"
FILE "Dougie Bowne - 1994 - One Way Elevator.wav" WAVE
TRACK 01 AUDIO
TITLE "My Park Your Park"
PERFORMER "Dougie Bowne"
INDEX 01 00:00:00
TRACK 02 AUDIO
TITLE "One Way Elevator"
PERFORMER "Dougie Bowne"
INDEX 01 04:37:32
TRACK 03 AUDIO
TITLE "Transvestite"
PERFORMER "Dougie Bowne"
INDEX 01 08:04:15
TRACK 04 AUDIO
TITLE "Mortming"
PERFORMER "Dougie Bowne"
INDEX 01 09:34:07
TRACK 05 AUDIO
TITLE "Fat Lip"
PERFORMER "Dougie Bowne"
INDEX 01 13:50:42
TRACK 06 AUDIO
TITLE "Disallusioned"
PERFORMER "Dougie Bowne"
INDEX 01 16:51:05
TRACK 07 AUDIO
TITLE "Hammock"
PERFORMER "Dougie Bowne"
INDEX 01 19:18:10
TRACK 08 AUDIO
TITLE "I Saw The Whole Thing"
PERFORMER "Dougie Bowne"
INDEX 01 20:20:60
TRACK 09 AUDIO
TITLE "Haunted"
PERFORMER "Dougie Bowne"
INDEX 01 24:54:02
TRACK 10 AUDIO
TITLE "Cecil's Birthday"
PERFORMER "Dougie Bowne"
INDEX 01 30:27:20
TRACK 11 AUDIO
TITLE "Chance Meeting"
PERFORMER "Dougie Bowne"
INDEX 01 31:01:45
TRACK 12 AUDIO
TITLE "I Stumbled"
PERFORMER "Dougie Bowne"
INDEX 01 34:29:40
TRACK 13 AUDIO
TITLE "Hymn"
PERFORMER "Dougie Bowne"
INDEX 01 39:08:67
 
Скриншот спектра частот
 
Состав
Drums – Dougie Bowne
with
Bass – Fred Hopkins
Piano – John Medeski
All compositions composed by – Dougie Bowne, except tracks #3, #7,#10 by Bowne/Medeski/Hopkins
Recorded at Sear Sound, NYC in 1994
Mastered at Foothill Digital, NYC
Executive Producer: DIW / Disk Union
По всем вопросам пишите личное сообщение пользователю M0p94ok.
15:12
178
Нет комментариев. Ваш будет первым!