Вы используете незарегистрированную версию компонента "Вкладки"!

Поиск

(Avant-Garde Jazz, Chamber Jazz) [CD] New Winds (Ned Rothenberg, J.D. Parran, Robert Dick) - Traction - 1991, FLAC (image+.cue), lossless

(Avant-Garde Jazz, Chamber Jazz) [CD] New Winds (Ned Rothenberg, J.D. Parran, Robert Dick) - Traction - 1991, FLAC (image+.cue), lossless
Треклист:
New Winds / Traction
Жанр: Avant-Garde Jazz, Chamber Jazz
Носитель: CD
Страна-производитель диска (релиза): Germany
Год издания: 1991
Издатель (лейбл): Sound Aspects
Номер по каталогу: SAS CD 044
Аудиокодек: FLAC (*.flac)
Тип рипа: image+.cue
Битрейт аудио: lossless
Продолжительность: 1:01:42
Источник (релизер): gssmg7
Наличие сканов в содержимом раздачи: да
Треклист:
1. Traction (9:01)
2. 3-2-1 (14:46)
3. Caterpillar Fish Sign (6:37)
4. Liplock (2:17)
5. Pluma Euphonia (4:16)
6. Propriocentricity (10:43)
7. Hat And Beard (10:22)
8. Birds Of A Feather (3:00)
 
Лог создания рипа
Exact Audio Copy V1.0 beta 2 from 29. April 2011
EAC extraction logfile from 6. March 2016, 0:25
New Winds / Traction
Used drive : Optiarc DVD RW AD-5280S Adapter: 1 ID: 1
Read mode : Secure
Utilize accurate stream : Yes
Defeat audio cache : Yes
Make use of C2 pointers : No
Read offset correction : 48
Overread into Lead-In and Lead-Out : No
Fill up missing offset samples with silence : Yes
Delete leading and trailing silent blocks : No
Null samples used in CRC calculations : Yes
Used interface : Installed external ASPI interface
Used output format : User Defined Encoder
Selected bitrate : 128 kBit/s
Quality : High
Add ID3 tag : No
Command line compressor : C:\Program Files\FLAC\flac.exe
Additional command line options : -V -8 -T "Genre=%genre%" -T "Artist=%artist%" -T "Title=%title%" -T "Album=%albumtitle%" -T "Date=%year%" -T "Tracknumber=%tracknr%" -T "Comment=%comment%" %source%
TOC of the extracted CD
Track | Start | Length | Start sector | End sector
---------------------------------------------------------
1 | 0:00.00 | 9:07.27 | 0 | 41051
2 | 9:07.27 | 14:53.05 | 41052 | 108031
3 | 24:00.32 | 6:44.00 | 108032 | 138331
4 | 30:44.32 | 2:19.68 | 138332 | 148824
5 | 33:04.25 | 4:17.67 | 148825 | 168166
6 | 37:22.17 | 10:50.63 | 168167 | 216979
7 | 48:13.05 | 10:29.45 | 216980 | 264199
8 | 58:42.50 | 2:59.50 | 264200 | 277674
Range status and errors
Selected range
Filename C:\New Winds (1991) - Traction\New Winds - Traction.wav
Peak level 94.1 %
Extraction speed 4.2 X
Range quality 100.0 %
Test CRC 362AF429
Copy CRC 362AF429
Copy OK
No errors occurred
AccurateRip summary
Track 1 accurately ripped (confidence 4) [B30CBBA7] (AR v2)
Track 2 accurately ripped (confidence 4) [6B7D6824] (AR v2)
Track 3 accurately ripped (confidence 4) [D62BA400] (AR v2)
Track 4 accurately ripped (confidence 4) [57F95AB2] (AR v2)
Track 5 accurately ripped (confidence 2) [5E88D4A7] (AR v2)
Track 6 accurately ripped (confidence 2) [56DA84F7] (AR v2)
Track 7 accurately ripped (confidence 4) [EE20C373] (AR v2)
Track 8 accurately ripped (confidence 3) [63145721] (AR v2)
All tracks accurately ripped
End of status report
==== Log checksum 5AF6BDA033DF8D886A47DD70A07CB363404B56F13166C0B08B2D42CBDF27FB5F ====
 
Содержание индексной карты (.CUE)
REM GENRE Jazz
REM DATE 1991
REM DISCID 7C0E7608
REM COMMENT "ExactAudioCopy v1.0b2"
PERFORMER "New Winds"
TITLE "Traction"
FILE "New Winds - Traction.flac" WAVE
TRACK 01 AUDIO
TITLE "Traction"
PERFORMER "New Winds"
INDEX 01 00:00:00
TRACK 02 AUDIO
TITLE "3-2-1"
PERFORMER "New Winds"
INDEX 00 09:01:17
INDEX 01 09:07:27
TRACK 03 AUDIO
TITLE "Caterpillar Fish Sign"
PERFORMER "New Winds"
INDEX 00 23:53:62
INDEX 01 24:00:32
TRACK 04 AUDIO
TITLE "Liplock"
PERFORMER "New Winds"
INDEX 00 30:37:60
INDEX 01 30:44:32
TRACK 05 AUDIO
TITLE "Pluma Euphonia"
PERFORMER "New Winds"
INDEX 00 33:01:52
INDEX 01 33:04:25
TRACK 06 AUDIO
TITLE "Propriocentricity"
PERFORMER "New Winds"
INDEX 00 37:16:07
INDEX 01 37:22:17
TRACK 07 AUDIO
TITLE "Hat and Beard"
PERFORMER "New Winds"
INDEX 00 48:06:32
INDEX 01 48:13:05
TRACK 08 AUDIO
TITLE "Birds of a Feather"
PERFORMER "New Winds"
INDEX 00 58:35:05
INDEX 01 58:42:50
 
Доп. информация
Recorded January 1991 at Park Place Studio, Brooklyn NY
 
Состав
Ned Rothenberg - alto saxophone, bass clarinet, shakuhachi, ocarina
J.D. Parran - clarinet, alto clarinet, soprano saxophone, contra-alto clarinet, alto flute, bamboo flute
Robert Dick - flute, bass flute, Ab piccolo, piccolo
По всем вопросам пишите личное сообщение пользователю M0p94ok.
19:19
199
Нет комментариев. Ваш будет первым!