Поиск

(Avant-Garde Jazz) [CD] Rudi Mahall, Axel Dorner, Jan Roder, Uli Jenneben - Die Enttauschung - 2002, FLAC (tracks+.cue), lossless

(Avant-Garde Jazz) [CD] Rudi Mahall, Axel Dorner, Jan Roder, Uli Jenneben - Die Enttauschung - 2002, FLAC (tracks+.cue), lossless
Треклист:
Rudi Mahall, Axel Dörner, Jan Roder, Uli Jenneßen / Die Enttäuschung
Жанр: Avant-Garde Jazz
Носитель: CD
Страна-производитель диска (релиза): Germany
Год издания: 2002
Издатель (лейбл): GROB
Номер по каталогу: 426
Аудиокодек: FLAC (*.flac)
Тип рипа: tracks+.cue
Битрейт аудио: lossless
Продолжительность: 63:24
Источник (релизер): cd
Наличие сканов в содержимом раздачи: нет
Треклист:
1 Meiner Ist Kleiner 1:37
2 Trinkle, Tinkle 7:09
3 Murx 2:32
4 Most Wanted/Gallops Gallop 7:47
5 Heiner Und Hannelore 1:00
6 Played Twice 5:23
7 O. Of N. 7:38
8 Brilliant Corners 6:32
9 Unisono 3:21
10 Piusch 0:57
11 Thelonious 3:14
12 Auf Den Offs 4:52
13 Herünt 1:57
14 San Francisco Holidays 5:48
15 Bright Mississippi 2:20
 
Лог создания рипа
Exact Audio Copy V1.0 beta 3 from 29. August 2011
EAC extraction logfile from 6. January 2015, 14:23
Mahall, Dorner, Roder, Jenneben / Die Enttauschung
Used drive : ASUS DRW-24F1ST a Adapter: 0 ID: 0
Read mode : Secure
Utilize accurate stream : Yes
Defeat audio cache : Yes
Make use of C2 pointers : No
Read offset correction : 6
Overread into Lead-In and Lead-Out : No
Fill up missing offset samples with silence : Yes
Delete leading and trailing silent blocks : No
Null samples used in CRC calculations : Yes
Used interface : Native Win32 interface for Win NT & 2000
Gap handling : Appended to previous track
Used output format : User Defined Encoder
Selected bitrate : 320 kBit/s
Quality : High
Add ID3 tag : No
Command line compressor : D:\Programs\Exact Audio Copy\Flac\flac.exe
Additional command line options : -V -8 -T "Genre=%genre%" -T "Artist=%artist%" -T "Title=%title%" -T "Album=%albumtitle%" -T "Date=%year%" -T "Tracknumber=%tracknr%" -T "Comment=%comment%" %source%
TOC of the extracted CD
Track | Start | Length | Start sector | End sector
---------------------------------------------------------
1 | 0:00.00 | 1:37.14 | 0 | 7288
2 | 1:37.14 | 7:13.64 | 7289 | 39827
3 | 8:51.03 | 2:40.74 | 39828 | 51901
4 | 11:32.02 | 7:51.10 | 51902 | 87236
5 | 19:23.12 | 1:04.62 | 87237 | 92098
6 | 20:27.74 | 5:29.04 | 92099 | 116777
7 | 25:57.03 | 7:42.63 | 116778 | 151490
8 | 33:39.66 | 6:36.43 | 151491 | 181233
9 | 40:16.34 | 3:25.34 | 181234 | 196642
10 | 43:41.68 | 1:03.61 | 196643 | 201428
11 | 44:45.54 | 3:18.25 | 201429 | 216303
12 | 48:04.04 | 4:57.31 | 216304 | 238609
13 | 53:01.35 | 2:04.52 | 238610 | 247961
14 | 55:06.12 | 5:53.38 | 247962 | 274474
15 | 60:59.50 | 2:24.27 | 274475 | 285301
Track 1
Filename D:\EAC\01 Meiner ist kleiner.wav
Pre-gap length 0:00:02.00
Peak level 97.9 %
Extraction speed 3.6 X
Track quality 100.0 %
Test CRC 3CCF5866
Copy CRC 3CCF5866
Copy OK
Track 2
Filename D:\EAC\02 Trinkle Tinkle.wav
Peak level 97.9 %
Extraction speed 5.2 X
Track quality 100.0 %
Test CRC 7CFFED56
Copy CRC 7CFFED56
Copy OK
Track 3
Filename D:\EAC\03 Murx.wav
Pre-gap length 0:00:05.00
Peak level 97.9 %
Extraction speed 4.2 X
Track quality 99.9 %
Test CRC 6D5F8849
Copy CRC 6D5F8849
Copy OK
Track 4
Filename D:\EAC\04 Most Wanted. Gallops Gallop.wav
Pre-gap length 0:00:06.00
Peak level 92.8 %
Extraction speed 5.9 X
Track quality 99.9 %
Test CRC D34740BF
Copy CRC D34740BF
Copy OK
Track 5
Filename D:\EAC\05 Heiner und Hannelore.wav
Pre-gap length 0:00:04.00
Peak level 82.3 %
Extraction speed 4.5 X
Track quality 100.0 %
Test CRC 9623D31E
Copy CRC 9623D31E
Copy OK
Track 6
Filename D:\EAC\06 Played Twice.wav
Pre-gap length 0:00:04.38
Peak level 97.9 %
Extraction speed 6.7 X
Track quality 100.0 %
Test CRC 5B2365DD
Copy CRC 5B2365DD
Copy OK
Track 7
Filename D:\EAC\07 O. of N..wav
Pre-gap length 0:00:05.00
Peak level 84.2 %
Extraction speed 7.4 X
Track quality 100.0 %
Test CRC 0CB5490B
Copy CRC 0CB5490B
Copy OK
Track 8
Filename D:\EAC\08 Brilliant Corners.wav
Pre-gap length 0:00:04.00
Peak level 97.9 %
Extraction speed 7.8 X
Track quality 100.0 %
Test CRC 6275BBA0
Copy CRC 6275BBA0
Copy OK
Track 9
Filename D:\EAC\09 Unisono.wav
Pre-gap length 0:00:04.38
Peak level 97.9 %
Extraction speed 7.4 X
Track quality 100.0 %
Test CRC E753ACDC
Copy CRC E753ACDC
Copy OK
Track 10
Filename D:\EAC\10 Piusch.wav
Pre-gap length 0:00:04.00
Peak level 82.1 %
Extraction speed 5.5 X
Track quality 100.0 %
Test CRC 798F0B61
Copy CRC 798F0B61
Copy OK
Track 11
Filename D:\EAC\11 Thelonious.wav
Pre-gap length 0:00:05.00
Peak level 92.5 %
Extraction speed 7.7 X
Track quality 100.0 %
Test CRC DAF787F4
Copy CRC DAF787F4
Copy OK
Track 12
Filename D:\EAC\12 Auf den Offs.wav
Pre-gap length 0:00:04.00
Peak level 97.9 %
Extraction speed 8.3 X
Track quality 100.0 %
Test CRC 07BDA4C9
Copy CRC 07BDA4C9
Copy OK
Track 13
Filename D:\EAC\13 Herunt.wav
Pre-gap length 0:00:05.00
Peak level 87.8 %
Extraction speed 7.3 X
Track quality 100.0 %
Test CRC 8F3BC296
Copy CRC 8F3BC296
Copy OK
Track 14
Filename D:\EAC\14 San Francisco Holidays.wav
Pre-gap length 0:00:07.00
Peak level 97.9 %
Extraction speed 8.8 X
Track quality 100.0 %
Test CRC 28446FE9
Copy CRC 28446FE9
Copy OK
Track 15
Filename D:\EAC\15 Bright Mississippi.wav
Pre-gap length 0:00:04.00
Peak level 95.9 %
Extraction speed 7.9 X
Track quality 100.0 %
Test CRC 11119D06
Copy CRC 11119D06
Copy OK
No errors occurred
End of status report
==== Log checksum 92C65DE430E20B6F62D217FD199C32D8FDDC27CF992251254CB277694D08D47E ====
 
Содержание индексной карты (.CUE)
REM GENRE Jazz
REM DATE 2002
REM DISCID DE0EDC0F
REM COMMENT "ExactAudioCopy v1.0b3"
PERFORMER "Mahall, Dorner, Roder, Jenneben"
TITLE "Die Enttauschung"
FILE "01 Meiner ist kleiner.wav" WAVE
TRACK 01 AUDIO
TITLE "Meiner ist kleiner"
PERFORMER "Mahall, Dorner, Roder, Jenneben"
INDEX 01 00:00:00
FILE "02 Trinkle Tinkle.wav" WAVE
TRACK 02 AUDIO
TITLE "Trinkle Tinkle"
PERFORMER "Mahall, Dorner, Roder, Jenneben"
INDEX 01 00:00:00
TRACK 03 AUDIO
TITLE "Murx"
PERFORMER "Mahall, Dorner, Roder, Jenneben"
INDEX 00 07:08:64
FILE "03 Murx.wav" WAVE
INDEX 01 00:00:00
TRACK 04 AUDIO
TITLE "Most Wanted. Gallops Gallop"
PERFORMER "Mahall, Dorner, Roder, Jenneben"
INDEX 00 02:34:74
FILE "04 Most Wanted. Gallops Gallop.wav" WAVE
INDEX 01 00:00:00
TRACK 05 AUDIO
TITLE "Heiner und Hannelore"
PERFORMER "Mahall, Dorner, Roder, Jenneben"
INDEX 00 07:47:10
FILE "05 Heiner und Hannelore.wav" WAVE
INDEX 01 00:00:00
TRACK 06 AUDIO
TITLE "Played Twice"
PERFORMER "Mahall, Dorner, Roder, Jenneben"
INDEX 00 01:00:24
FILE "06 Played Twice.wav" WAVE
INDEX 01 00:00:00
TRACK 07 AUDIO
TITLE "O. of N."
PERFORMER "Mahall, Dorner, Roder, Jenneben"
INDEX 00 05:24:04
FILE "07 O. of N..wav" WAVE
INDEX 01 00:00:00
TRACK 08 AUDIO
TITLE "Brilliant Corners"
PERFORMER "Mahall, Dorner, Roder, Jenneben"
INDEX 00 07:38:63
FILE "08 Brilliant Corners.wav" WAVE
INDEX 01 00:00:00
TRACK 09 AUDIO
TITLE "Unisono"
PERFORMER "Mahall, Dorner, Roder, Jenneben"
INDEX 00 06:32:05
FILE "09 Unisono.wav" WAVE
INDEX 01 00:00:00
TRACK 10 AUDIO
TITLE "Piusch"
PERFORMER "Mahall, Dorner, Roder, Jenneben"
INDEX 00 03:21:34
FILE "10 Piusch.wav" WAVE
INDEX 01 00:00:00
TRACK 11 AUDIO
TITLE "Thelonious"
PERFORMER "Mahall, Dorner, Roder, Jenneben"
INDEX 00 00:58:61
FILE "11 Thelonious.wav" WAVE
INDEX 01 00:00:00
TRACK 12 AUDIO
TITLE "Auf den Offs"
PERFORMER "Mahall, Dorner, Roder, Jenneben"
INDEX 00 03:14:25
FILE "12 Auf den Offs.wav" WAVE
INDEX 01 00:00:00
TRACK 13 AUDIO
TITLE "Herunt"
PERFORMER "Mahall, Dorner, Roder, Jenneben"
INDEX 00 04:52:31
FILE "13 Herunt.wav" WAVE
INDEX 01 00:00:00
TRACK 14 AUDIO
TITLE "San Francisco Holidays"
PERFORMER "Mahall, Dorner, Roder, Jenneben"
INDEX 00 01:57:52
FILE "14 San Francisco Holidays.wav" WAVE
INDEX 01 00:00:00
TRACK 15 AUDIO
TITLE "Bright Mississippi"
PERFORMER "Mahall, Dorner, Roder, Jenneben"
INDEX 00 05:49:38
FILE "15 Bright Mississippi.wav" WAVE
INDEX 01 00:00:00
Доп. информация: Recorded on Summer 1997 at Tonstudio On Air, Berlin
 
Состав
Bass Clarinet – Rudi Mahall
Double Bass – Jan Roder
Drums – Uli Jenneßen
Trumpet – Axel Dörner
По всем вопросам пишите личное сообщение пользователю M0p94ok.
08:07
138
Нет комментариев. Ваш будет первым!