Поиск

(Avant-Garde Jazz) [CD] Richie Beirach, Dave Liebman, HR Bigband - Quest for Freedom - 2010, FLAC (tracks+.cue), lossless

(Avant-Garde Jazz) [CD] Richie Beirach, Dave Liebman, HR Bigband - Quest for Freedom - 2010, FLAC (tracks+.cue), lossless
Richie Beirach, Dave Liebman, HR Bigband - Quest for Freedom
Жанр: Avant-Garde Jazz
Носитель: CD
Страна-производитель диска (релиза): США
Год издания: 2010
Издатель (лейбл): Sunnyside Communications, Inc.
Номер по каталогу: SSC 1266
Аудиокодек: FLAC (*.flac)
Тип рипа: tracks+.cue
Битрейт аудио: lossless
Продолжительность: 75:35
Источник (релизер): grumpycat (what)
Наличие сканов в содержимом раздачи: нет
Треклист:
01. Pendulum (Beirach) - 14:08
02. Jung (Liebman) - 8:31
03. Vendetta (Liebman) - 5:35
04. WTC (Liebman) - 12:57
05. Port Ligat (Liebman) - 11:18
06. Enfin (Liebman) - 9:14
07. The Sky Is the Limit (McNeely) - 13:52
Состав:
Richie Beirach - piano
Dave Liebman - soprano saxophone, wooden flute
HR Bigband (Frankfurt Radio Bigband)
Jim McNeely - conductor
#1,7 recorded live in concert at hr Sendesaal, Hessischer Rundfunk Frankfurt/Main on June 20, 2009.
#2-6 recorded at Horfunkstudio II, Hessischer Rundfunk Frankfurt/Main on June 18-19, 2009.
 
Лог создания рипа
X Lossless Decoder version 20141129 (148.1)
XLD extraction logfile from 2015-01-16 22:26:37 -0500
Richie Beirach, Dave Liebman & Frankfort Radio Big Band / Quest For Freedom
Used drive : MATSHITA DVD-R UJ-8A8 (revision HB14)
Media type : Pressed CD
Ripper mode : XLD Secure Ripper
Disable audio cache : OK for the drive with a cache less than 1375KiB
Make use of C2 pointers : NO
Read offset correction : 102
Max retry count : 100
Gap status : Analyzed, Appended (except HTOA)
TOC of the extracted CD
Track | Start | Length | Start sector | End sector
---------------------------------------------------------
1 | 00:00:00 | 14:08:19 | 0 | 63618
2 | 14:08:19 | 08:30:59 | 63619 | 101927
3 | 22:39:03 | 05:35:20 | 101928 | 127072
4 | 28:14:23 | 12:56:50 | 127073 | 185322
5 | 41:10:73 | 11:18:16 | 185323 | 236188
6 | 52:29:14 | 09:13:55 | 236189 | 277718
7 | 61:42:69 | 13:51:73 | 277719 | 340116
AccurateRip Summary (DiscID: 00145300-00794ed1-5711b607)
Track 01 : OK (v2, confidence 1/1)
Track 02 : OK (v2, confidence 1/1)
Track 03 : OK (v2, confidence 1/1)
Track 04 : OK (v2, confidence 1/1)
Track 05 : OK (v2, confidence 1/1)
Track 06 : OK (v2, confidence 1/1)
Track 07 : OK (v2, confidence 1/1)
->All tracks accurately ripped.
All Tracks
Album gain : -6.03 dB
Peak : 0.979828
Statistics
Read error : 0
Jitter error (maybe fixed) : 0
Retry sector count : 0
Damaged sector count : 0
Track 01
Filename : /Users/XLD_rips/Richie Beirach, Dave Liebman & Frankfort Radio Big Band - Quest For Freedom (2010) [FLAC]/01-01 Pendulum.flac
Pre-gap length : 00:02:00
Track gain : -7.31 dB
Peak : 0.979797
CRC32 hash (test run) : 8AA8C6A8
CRC32 hash : 8AA8C6A8
CRC32 hash (skip zero) : 1160927A
AccurateRip v1 signature : CDB4EF17
AccurateRip v2 signature : DF02F43F
->Accurately ripped (v2, confidence 1/1)
Statistics
Read error : 0
Jitter error (maybe fixed) : 0
Retry sector count : 0
Damaged sector count : 0
Track 02
Filename : /Users/XLD_rips/Richie Beirach, Dave Liebman & Frankfort Radio Big Band - Quest For Freedom (2010) [FLAC]/01-02 Jung.flac
Pre-gap length : 00:01:73
Track gain : -5.32 dB
Peak : 0.979706
CRC32 hash (test run) : 5C6D95D6
CRC32 hash : 5C6D95D6
CRC32 hash (skip zero) : 77949A91
AccurateRip v1 signature : 0C280272
AccurateRip v2 signature : 07A8DB9D
->Accurately ripped (v2, confidence 1/1)
Statistics
Read error : 0
Jitter error (maybe fixed) : 0
Retry sector count : 0
Damaged sector count : 0
Track 03
Filename : /Users/XLD_rips/Richie Beirach, Dave Liebman & Frankfort Radio Big Band - Quest For Freedom (2010) [FLAC]/01-03 Vendetta.flac
Pre-gap length : 00:04:42
Track gain : -4.32 dB
Peak : 0.979584
CRC32 hash (test run) : 072A1BFE
CRC32 hash : 072A1BFE
CRC32 hash (skip zero) : 58CA875E
AccurateRip v1 signature : A71B5E78
AccurateRip v2 signature : D08BCA7B
->Accurately ripped (v2, confidence 1/1)
Statistics
Read error : 0
Jitter error (maybe fixed) : 0
Retry sector count : 0
Damaged sector count : 0
Track 04
Filename : /Users/XLD_rips/Richie Beirach, Dave Liebman & Frankfort Radio Big Band - Quest For Freedom (2010) [FLAC]/01-04 WTC.flac
Pre-gap length : 00:06:30
Track gain : -3.76 dB
Peak : 0.979767
CRC32 hash (test run) : 2262BEB4
CRC32 hash : 2262BEB4
CRC32 hash (skip zero) : 9F661977
AccurateRip v1 signature : 42FA4B53
AccurateRip v2 signature : 1103AF99
->Accurately ripped (v2, confidence 1/1)
Statistics
Read error : 0
Jitter error (maybe fixed) : 0
Retry sector count : 0
Damaged sector count : 0
Track 05
Filename : /Users/XLD_rips/Richie Beirach, Dave Liebman & Frankfort Radio Big Band - Quest For Freedom (2010) [FLAC]/01-05 Port Ligat.flac
Pre-gap length : 00:06:32
Track gain : -4.41 dB
Peak : 0.979797
CRC32 hash (test run) : 320CCC13
CRC32 hash : 320CCC13
CRC32 hash (skip zero) : 94EADC28
AccurateRip v1 signature : 4ED8E4F3
AccurateRip v2 signature : EF60359D
->Accurately ripped (v2, confidence 1/1)
Statistics
Read error : 0
Jitter error (maybe fixed) : 0
Retry sector count : 0
Damaged sector count : 0
Track 06
Filename : /Users/XLD_rips/Richie Beirach, Dave Liebman & Frankfort Radio Big Band - Quest For Freedom (2010) [FLAC]/01-06 Enfin.flac
Pre-gap length : 00:02:64
Track gain : -6.48 dB
Peak : 0.979797
CRC32 hash (test run) : 8A6C2E8D
CRC32 hash : 8A6C2E8D
CRC32 hash (skip zero) : 38F78429
AccurateRip v1 signature : 7F874A03
AccurateRip v2 signature : 1017AA82
->Accurately ripped (v2, confidence 1/1)
Statistics
Read error : 0
Jitter error (maybe fixed) : 0
Retry sector count : 0
Damaged sector count : 0
Track 07
Filename : /Users/XLD_rips/Richie Beirach, Dave Liebman & Frankfort Radio Big Band - Quest For Freedom (2010) [FLAC]/01-07 The Sky Is The Limit.flac
Pre-gap length : 00:05:06
Track gain : -6.43 dB
Peak : 0.979828
CRC32 hash (test run) : 57834341
CRC32 hash : 57834341
CRC32 hash (skip zero) : 41424E1E
AccurateRip v1 signature : 72D1118A
AccurateRip v2 signature : 7140E82D
->Accurately ripped (v2, confidence 1/1)
Statistics
Read error : 0
Jitter error (maybe fixed) : 0
Retry sector count : 0
Damaged sector count : 0
No errors occurred
End of status report
-----BEGIN XLD SIGNATURE-----
BoXndHcdDBSd93hbfRJn9gTZMePrNK9KkujfbAXhlJqArHSm9qP9QBeBSYdfkCs_tTFKnt1auzbGEW9Vqv3Co9s9IxBBqiT2BO3l2la
-----END XLD SIGNATURE-----
 
Содержание индексной карты (.CUE)
TITLE "Quest for Freedom"
PERFORMER "Richie Beirach, Dave Liebman, Frankfurt Radio Bigband"
CATALOG 0016728126625
REM GENRE "Jazz"
REM DATE "2010"
REM DISCID 5711B607
REM REPLAYGAIN_ALBUM_GAIN -6.03 dB
REM REPLAYGAIN_ALBUM_PEAK 0.979828
FILE "01 - Pendulum.flac" WAVE
TRACK 01 AUDIO
TITLE "Pendulum"
ISRC US2W61026601
REM REPLAYGAIN_TRACK_GAIN -7.31 dB
REM REPLAYGAIN_TRACK_PEAK 0.979797
INDEX 01 00:00:00
TRACK 02 AUDIO
TITLE "Jung"
ISRC US2W61026602
REM REPLAYGAIN_TRACK_GAIN -5.32 dB
REM REPLAYGAIN_TRACK_PEAK 0.979706
INDEX 00 14:06:21
FILE "02 - Jung.flac" WAVE
INDEX 01 00:00:00
TRACK 03 AUDIO
TITLE "Vendetta"
ISRC US2W61026603
REM REPLAYGAIN_TRACK_GAIN -4.32 dB
REM REPLAYGAIN_TRACK_PEAK 0.979584
INDEX 00 08:26:17
FILE "03 - Vendetta.flac" WAVE
INDEX 01 00:00:00
TRACK 04 AUDIO
TITLE "WTC"
ISRC US2W61026604
REM REPLAYGAIN_TRACK_GAIN -3.76 dB
REM REPLAYGAIN_TRACK_PEAK 0.979767
INDEX 00 05:28:65
FILE "04 - WTC.flac" WAVE
INDEX 01 00:00:00
TRACK 05 AUDIO
TITLE "Port Ligat"
ISRC US2W61026605
REM REPLAYGAIN_TRACK_GAIN -4.41 dB
REM REPLAYGAIN_TRACK_PEAK 0.979797
INDEX 00 12:50:18
FILE "05 - Port Ligat.flac" WAVE
INDEX 01 00:00:00
TRACK 06 AUDIO
TITLE "Enfin"
ISRC US2W61026606
REM REPLAYGAIN_TRACK_GAIN -6.48 dB
REM REPLAYGAIN_TRACK_PEAK 0.979797
INDEX 00 11:15:27
FILE "06 - Enfin.flac" WAVE
INDEX 01 00:00:00
TRACK 07 AUDIO
TITLE "The Sky Is the Limit"
ISRC US2W61026607
REM REPLAYGAIN_TRACK_GAIN -6.43 dB
REM REPLAYGAIN_TRACK_PEAK 0.979828
INDEX 00 09:08:49
FILE "07 - The Sky Is the Limit.flac" WAVE
INDEX 01 00:00:00
 
Отчет CUETools
[CUETools log; Date: 24.10.2016 16:49:16; Version: 2.1.5]
[CTDB TOCID: ARCwnWxOsNYotT_BkOyDkXa9tiY-] found.
Track | CTDB Status
1 | (3/3) Accurately ripped
2 | (3/3) Accurately ripped
3 | (3/3) Accurately ripped
4 | (3/3) Accurately ripped
5 | (3/3) Accurately ripped
6 | (3/3) Accurately ripped
7 | (3/3) Accurately ripped
[AccurateRip ID: 00145300-00794ed1-5711b607] found.
Track [ CRC | V2 ] Status
01 [cdb4ef17|df02f43f] (0+2/2) Accurately ripped
02 [0c280272|07a8db9d] (0+2/2) Accurately ripped
03 [a71b5e78|d08bca7b] (0+2/2) Accurately ripped
04 [42fa4b53|1103af99] (0+2/2) Accurately ripped
05 [4ed8e4f3|ef60359d] (0+2/2) Accurately ripped
06 [7f874a03|1017aa82] (0+2/2) Accurately ripped
07 [72d1118a|7140e82d] (0+2/2) Accurately ripped
Track Peak [ CRC32 ] [W/O NULL]
-- 97,9 [E44E2A66] [98A1A940]
01 97,9 [8AA8C6A8] [1160927A]
02 97,9 [5C6D95D6] [77949A91]
03 97,9 [072A1BFE] [58CA875E]
04 97,9 [2262BEB4] [9F661977]
05 97,9 [320CCC13] [94EADC28]
06 97,9 [8A6C2E8D] [38F78429]
07 97,9 [57834341] [41424E1E]
 
AllMusic Review by Ken Dryden
Dave Liebman and Richie Beirach made a number of important recordings together in small groups (Quest and Pendulum) and as a duo during the 1970s and 1980s, but for these 2009 sessions, they are guest soloists with the Frankfurt Radio Bigband, arranged and conducted by Jim McNeely. Beirach's dark, brisk "Pendulum" proves to be a powerful opener, with thrilling solos by the tenor saxophonist and the composer, plus a wild, freewheeling feature for Liebman on soprano sax. Liebman's "Vendetta" is a haunting melody; Beirach opens it alone and is soon joined by Liebman, with the reeds and brass providing background colors later. There is no mistaking the inspiration for Liebman's "WTC." He introduces it alone on his piercing, emotional wood flute, with Beirach gradually adding dark chords. As the composer switches to soprano, one can feel the anguish of September 11, 2001, with rumbling percussion and sporadic bursts from the brass and reeds. McNeely contributed "The Sky Is the Limit," an extended work that proves to be another strong showcase for Liebman and Beirach. This is yet another memorable chapter in the considerable joint discography of Dave Liebman and Richie Beirach.
22:09
459
Нет комментариев. Ваш будет первым!