Вы используете незарегистрированную версию компонента "Вкладки"!

Поиск

(Avant-Garde Jazz) [CD] Mat Maneri (John McLellan, Tom Rainey, John Hebert, Craig Taborn, Jamie Saft, Joe Maneri, Ben Gerstein) - Pentagon - 2005, FLAC (tracks+.cue), lossless

(Avant-Garde Jazz) [CD] Mat Maneri (John McLellan, Tom Rainey, John Hebert, Craig Taborn, Jamie Saft, Joe Maneri, Ben Gerstein) - Pentagon - 2005, FLAC (tracks+.cue), lossless
Треклист:
Mat Maneri / Pentagon
Жанр: Avant-Garde Jazz
Носитель: CD
Страна-производитель диска (релиза): US
Год издания: 2005
Издатель (лейбл): Thirsty Ear
Номер по каталогу: THI 57163.2
Аудиокодек: FLAC (*.flac)
Тип рипа: tracks+.cue
Битрейт аудио: lossless
Продолжительность: 58:24
Источник (релизер): CD
Наличие сканов в содержимом раздачи: нет
Треклист:
1 AVA 2:53
2 WWP 7:50
3 Inslut 1:25
4 Irena 5:38
5 Third Hand-The Fallen 3:07
6 Witches Woo 6:12
7 Wound 9:29
8 Howl In My Head/Motherless Child 3:07
9 An Angel Passes By 7:27
10 Pentagon 0:57
11 The War Room 7:11
12 America 3:11
 
Лог создания рипа
Exact Audio Copy V1.0 beta 3 from 29. August 2011
EAC extraction logfile from 15. January 2015, 15:51
Mat Maneri / Pentagon
Used drive : ASUS DRW-24F1ST a Adapter: 0 ID: 0
Read mode : Secure
Utilize accurate stream : Yes
Defeat audio cache : Yes
Make use of C2 pointers : No
Read offset correction : 6
Overread into Lead-In and Lead-Out : No
Fill up missing offset samples with silence : Yes
Delete leading and trailing silent blocks : No
Null samples used in CRC calculations : Yes
Used interface : Native Win32 interface for Win NT & 2000
Gap handling : Appended to previous track
Used output format : User Defined Encoder
Selected bitrate : 320 kBit/s
Quality : High
Add ID3 tag : No
Command line compressor : D:\Programs\Exact Audio Copy\Flac\flac.exe
Additional command line options : -V -8 -T "Genre=%genre%" -T "Artist=%artist%" -T "Title=%title%" -T "Album=%albumtitle%" -T "Date=%year%" -T "Tracknumber=%tracknr%" -T "Comment=%comment%" %source%
TOC of the extracted CD
Track | Start | Length | Start sector | End sector
---------------------------------------------------------
1 | 0:00.00 | 2:52.54 | 0 | 12953
2 | 2:52.54 | 7:49.46 | 12954 | 48174
3 | 10:42.25 | 1:25.24 | 48175 | 54573
4 | 12:07.49 | 5:37.70 | 54574 | 79918
5 | 17:45.44 | 3:06.61 | 79919 | 93929
6 | 20:52.30 | 6:11.46 | 93930 | 121800
7 | 27:04.01 | 9:28.43 | 121801 | 164443
8 | 36:32.44 | 3:06.56 | 164444 | 178449
9 | 39:39.25 | 7:26.64 | 178450 | 211963
10 | 47:06.14 | 0:56.49 | 211964 | 216212
11 | 48:02.63 | 7:10.62 | 216213 | 248524
12 | 55:13.50 | 3:11.25 | 248525 | 262874
Track 1
Filename D:\EAC\01 Ava.wav
Pre-gap length 0:00:02.00
Peak level 85.8 %
Extraction speed 4.2 X
Track quality 100.0 %
Test CRC 4B3733D3
Copy CRC 4B3733D3
Copy OK
Track 2
Filename D:\EAC\02 WWP.wav
Peak level 98.8 %
Extraction speed 5.4 X
Track quality 100.0 %
Test CRC 547CFEFE
Copy CRC 547CFEFE
Copy OK
Track 3
Filename D:\EAC\03 Inslut.wav
Peak level 98.8 %
Extraction speed 3.4 X
Track quality 99.8 %
Test CRC 8E87D8E2
Copy CRC 8E87D8E2
Copy OK
Track 4
Filename D:\EAC\04 Irena.wav
Peak level 98.8 %
Extraction speed 6.1 X
Track quality 100.0 %
Test CRC C4C9973C
Copy CRC C4C9973C
Copy OK
Track 5
Filename D:\EAC\05 Third Hand - The Fallen.wav
Peak level 98.8 %
Extraction speed 6.0 X
Track quality 100.0 %
Test CRC 7BCC1A14
Copy CRC 7BCC1A14
Copy OK
Track 6
Filename D:\EAC\06 Witches Woo.wav
Peak level 98.8 %
Extraction speed 7.0 X
Track quality 100.0 %
Test CRC AC94A1FE
Copy CRC AC94A1FE
Copy OK
Track 7
Filename D:\EAC\07 Wound.wav
Peak level 98.8 %
Extraction speed 7.8 X
Track quality 100.0 %
Test CRC 25A2E798
Copy CRC 25A2E798
Copy OK
Track 8
Filename D:\EAC\08 Howl In My Head , Motherless Child.wav
Peak level 98.8 %
Extraction speed 7.2 X
Track quality 100.0 %
Test CRC E04BB90F
Copy CRC E04BB90F
Copy OK
Track 9
Filename D:\EAC\09 An Angel Passes By.wav
Peak level 98.8 %
Extraction speed 7.8 X
Track quality 99.9 %
Test CRC 754D01F8
Copy CRC 754D01F8
Copy OK
Track 10
Filename D:\EAC\10 Pentagon.wav
Peak level 98.8 %
Extraction speed 5.5 X
Track quality 100.0 %
Test CRC D17B02DE
Copy CRC D17B02DE
Copy OK
Track 11
Filename D:\EAC\11 The War Room.wav
Peak level 98.8 %
Extraction speed 9.0 X
Track quality 100.0 %
Test CRC A8233AE5
Copy CRC A8233AE5
Copy OK
Track 12
Filename D:\EAC\12 America.wav
Peak level 83.9 %
Extraction speed 8.3 X
Track quality 100.0 %
Test CRC 2F7CE295
Copy CRC 2F7CE295
Copy OK
No errors occurred
End of status report
==== Log checksum C2D78F60DB3590B4EEF3550F4B743B6CFEFD4A7E56F21B867B5F760CCF5DAA61 ====
 
Содержание индексной карты (.CUE)
REM GENRE Jazz
REM DATE 2005
REM DISCID AB0DB10C
REM COMMENT "ExactAudioCopy v1.0b3"
PERFORMER "Mat Maneri"
TITLE "Pentagon"
FILE "01 Ava.wav" WAVE
TRACK 01 AUDIO
TITLE "Ava"
PERFORMER "Mat Maneri"
INDEX 01 00:00:00
FILE "02 WWP.wav" WAVE
TRACK 02 AUDIO
TITLE "WWP"
PERFORMER "Mat Maneri"
INDEX 01 00:00:00
FILE "03 Inslut.wav" WAVE
TRACK 03 AUDIO
TITLE "Inslut"
PERFORMER "Mat Maneri"
INDEX 01 00:00:00
FILE "04 Irena.wav" WAVE
TRACK 04 AUDIO
TITLE "Irena"
PERFORMER "Mat Maneri"
INDEX 01 00:00:00
FILE "05 Third Hand - The Fallen.wav" WAVE
TRACK 05 AUDIO
TITLE "Third Hand - The Fallen"
PERFORMER "Mat Maneri"
INDEX 01 00:00:00
FILE "06 Witches Woo.wav" WAVE
TRACK 06 AUDIO
TITLE "Witches Woo"
PERFORMER "Mat Maneri"
INDEX 01 00:00:00
FILE "07 Wound.wav" WAVE
TRACK 07 AUDIO
TITLE "Wound"
PERFORMER "Mat Maneri"
INDEX 01 00:00:00
FILE "08 Howl In My Head , Motherless Child.wav" WAVE
TRACK 08 AUDIO
TITLE "Howl In My Head / Motherless Child"
PERFORMER "Mat Maneri"
INDEX 01 00:00:00
FILE "09 An Angel Passes By.wav" WAVE
TRACK 09 AUDIO
TITLE "An Angel Passes By"
PERFORMER "Mat Maneri"
INDEX 01 00:00:00
FILE "10 Pentagon.wav" WAVE
TRACK 10 AUDIO
TITLE "Pentagon"
PERFORMER "Mat Maneri"
INDEX 01 00:00:00
FILE "11 The War Room.wav" WAVE
TRACK 11 AUDIO
TITLE "The War Room"
PERFORMER "Mat Maneri"
INDEX 01 00:00:00
FILE "12 America.wav" WAVE
TRACK 12 AUDIO
TITLE "America"
PERFORMER "Mat Maneri"
INDEX 01 00:00:00
Доп. информация: Recorded the Summer of 2004 at Frank Booth.
 
Об альбоме (сборнике)
You never really know quite what to expect from string virtuoso Mat Maneri; it seems he makes a different type of record every time out. A quick perusal of the album and song titles ("Pentagon," "War Room," "Wound,") might lead you to believe that Pentagon is some kind of progressive political treatise. That may be true at some very abstract level, but another track title is more indicative of where this album is really at: "Witches Woo." Aside from the lovely string opener and closer, and a couple brief tracks with hip-hop-type beats and turntables, this album sounds like a direct homage to Miles Davis' groundbreaking 1970 album. Fender Rhodes, electric piano, and organ, along with a dual drum setup, give the same rich but spacy sound with Maneri's electric violin in place of Miles' wah trumpet (the resemblance there is uncanny). The keyboard playing of Craig Taborn and Joe Maneri sparkles (Joe also gets some space on alto on one cut), and Mat Maneri's playing on both electric and acoustic violin/viola is incredible. Despite the song titles, the music is not dark or foreboding...in fact, the title cut features Joe Maneri doing some scat singing until he cracks up at the end (not exactly dark or foreboding). Was Maneri was trying to draw some parallel between the increasing malaise of the U.S. quagmires in Iraq and Vietnam and extrapolate that parallel somehow to revolutionary music? It doesn't really matter. The bottom line is that Maneri and his bandmates have re-created a sound that few have attempted, let alone mastered, and one that still sounds fresh 35 years down the road. If you like Bitches Brew, you need to check this out.
 
Состав
Bass – John Hebert
Drums – John McLellan, Tom Rainey
Electric Piano [Fender Rhodes], Computer [Laptop] – Craig Taborn
Mellotron [Melatron], Engineer – Jamie Saft
Mridangam [Mridungdum] – T.K. Ramakrishnan
Organ [Organs], Piano, Electric Piano, Saxophone [Alto], Voice – Joe Maneri
Trombone – Ben Gerstein
Violin [Acoustic And Electric], Viola [Violas], Producer – Mat Maneri
Voice – Sonja Maneri
По всем вопросам пишите личное сообщение пользователю M0p94ok.
08:23
303
Нет комментариев. Ваш будет первым!